Paste MC

Mega Colecciones

All The Way (2016) 1080p Remux NFO

General
Unique ID : 228942564125308287499300449937501207106 (0xAC3CBBE6127953EE9C5957682ED83A42)
Complete name : C:\All The Way (2016) Remux.mkv
Format : Matroska
Format version : Version 4 / Version 2
File size : 35.2 GiB
Duration : 2h 12mn
Overall bit rate mode : Variable
Overall bit rate : 38.1 Mbps
Movie name : All The Way (2016) Remux - www.MegaColecciones.com
Encoded date : UTC 2016-09-29 20:50:01
Writing application : mkvmerge v7.4.0 ('Circles') 64bit built on Dec 12 2014 12:19:56
Writing library : libebml v1.3.0 + libmatroska v1.4.1
DURATION : 02:07:45.324000000
NUMBER_OF_FRAMES : 4212
NUMBER_OF_BYTES : 10821738
_STATISTICS_WRITING_APP : mkvmerge v7.4.0 ('Circles') 64bit built on Dec 12 2014 12:19:56
_STATISTICS_WRITING_DATE_UTC : 2016-09-29 20:50:01
_STATISTICS_TAGS : BPS DURATION NUMBER_OF_FRAMES NUMBER_OF_BYTES

Video
ID : 1
Format : AVC
Format/Info : Advanced Video Codec
Format profile : High@L4.1
Format settings, CABAC : Yes
Format settings, ReFrames : 4 frames
Codec ID : V_MPEG4/ISO/AVC
Duration : 2h 12mn
Bit rate mode : Variable
Maximum bit rate : 38.0 Mbps
Width : 1 920 pixels
Height : 1 080 pixels
Display aspect ratio : 16:9
Frame rate mode : Constant
Frame rate : 23.976 fps
Color space : YUV
Chroma subsampling : 4:2:0
Bit depth : 8 bits
Scan type : Progressive
Title : www.MegaColecciones.com
Language : English
Default : Yes
Forced : No

Audio #1
ID : 2
Format : DTS
Format/Info : Digital Theater Systems
Format profile : MA / Core
Mode : 16
Format settings, Endianness : Big
Codec ID : A_DTS
Duration : 2h 12mn
Bit rate mode : Variable
Bit rate : Unknown / 1 509 Kbps
Channel count : 6 channels
Channel positions : Front: L C R, Side: L R, LFE
Sampling rate : 48.0 KHz
Bit depth : 24 bits
Compression mode : Lossless / Lossy
Language : English
Default : No
Forced : No

Audio #2
ID : 3
Format : DTS
Format/Info : Digital Theater Systems
Mode : 16
Format settings, Endianness : Big
Codec ID : A_DTS
Duration : 2h 12mn
Bit rate mode : Constant
Bit rate : 768 Kbps
Channel count : 6 channels
Channel positions : Front: L C R, Side: L R, LFE
Sampling rate : 48.0 KHz
Bit depth : 24 bits
Compression mode : Lossy
Stream size : 725 MiB (2%)
Language : French
Default : No
Forced : No

Audio #3
ID : 4
Format : DTS
Format/Info : Digital Theater Systems
Mode : 16
Format settings, Endianness : Big
Codec ID : A_DTS
Duration : 2h 12mn
Bit rate mode : Constant
Bit rate : 255 Kbps
Channel count : 2 channels
Channel positions : Front: L R
Sampling rate : 48.0 KHz
Bit depth : 24 bits
Compression mode : Lossy
Stream size : 241 MiB (1%)
Language : Spanish
Default : Yes
Forced : No

Audio #4
ID : 5
Format : DTS
Format/Info : Digital Theater Systems
Mode : 16
Format settings, Endianness : Big
Codec ID : A_DTS
Duration : 2h 12mn
Bit rate mode : Constant
Bit rate : 1 509 Kbps
Channel count : 6 channels
Channel positions : Front: L C R, Side: L R, LFE
Sampling rate : 48.0 KHz
Bit depth : 24 bits
Compression mode : Lossy
Stream size : 1.39 GiB (4%)
Language : English
Default : No
Forced : No

Text #1
ID : 6
Format : PGS
Muxing mode : zlib
Codec ID : S_HDMV/PGS
Codec ID/Info : The same subtitle format used on BDs/HD-DVDs
Title : English-PGS
Language : English
Default : No
Forced : No

Text #2
ID : 7
Format : PGS
Muxing mode : zlib
Codec ID : S_HDMV/PGS
Codec ID/Info : The same subtitle format used on BDs/HD-DVDs
Title : French-PGS
Language : French
Default : No
Forced : No

Text #3
ID : 8
Format : PGS
Muxing mode : zlib
Codec ID : S_HDMV/PGS
Codec ID/Info : The same subtitle format used on BDs/HD-DVDs
Title : Spanish-PGS
Language : Spanish
Default : Yes
Forced : No

Text #4
ID : 9
Format : PGS
Muxing mode : zlib
Codec ID : S_HDMV/PGS
Codec ID/Info : The same subtitle format used on BDs/HD-DVDs
Title : Portuguese-PGS
Language : Portuguese
Default : No
Forced : No

Menu
00:00:00.000 : en:(01)00:00:00:000
00:10:48.230 : en:(02)00:10:48:230
00:21:38.088 : en:(03)00:21:38:088
00:31:30.054 : en:(04)00:31:30:054
00:41:33.032 : en:(05)00:41:33:032
00:50:24.146 : en:(06)00:50:24:146
01:00:34.339 : en:(07)01:00:34:339
01:10:44.949 : en:(08)01:10:44:949
01:19:27.679 : en:(09)01:19:27:679
01:31:03.166 : en:(10)01:31:03:166
01:44:14.456 : en:(11)01:44:14:456
01:55:24.000 : en:(12)01:55:24:000
02:07:16.629 : en:(13)02:07:16:629
02:12:00.996 : en:(14)02:12:00:996


Reportar Error Visitas: 107