Paste MC

Mega Colecciones

Thor Rangnarok-NFO

Disc Title: Thor Ragnarok BD50
Disc Size: 44.938.577.094 bytes
Protection: AACS
BD-Java: Yes
BDInfo: 0.5.8
********************
PLAYLIST: 00800.MPLS
********************

<--- BEGIN FORUMS PASTE --->

Total Video
Title Codec Length Movie Size Disc Size Bitrate Bitrate Main Audio Track Secondary Audio Track
----- ------ ------- -------------- -------------- ------- ------- ------------------ ---------------------
00800.MPLS AVC 2:10:30 0 44.938.577.094 0,00 0,00 DTS-HD Master 7.1 (48kHz/24-bit)




DISC INFO:

Disc Title: Thor Ragnarok BD50
Disc Size: 44.938.577.094 bytes
Protection: AACS
BD-Java: Yes
BDInfo: 0.5.8

PLAYLIST REPORT:

Name: 00800.MPLS
Length: 2:10:30.697 (h:m:s.ms)
Size: 0 bytes
Total Bitrate: 0,00 Mbps

VIDEO:

Codec Bitrate Description
----- ------- -----------
MPEG-4 AVC Video 0 kbps 1080p / 23,976 fps / 16:9 / High Profile 4.1

AUDIO:

Codec Language Bitrate Description
----- -------- ------- -----------
DTS-HD Master Audio English 0 kbps 7.1 / 48 kHz / 24-bit (DTS Core: 5.1 / 48 kHz / 1509 kbps / 24-bit / DN -4dB)
Dolby Digital Plus Audio Italian 512 kbps 5.1 / 48 kHz / 512 kbps
DTS Audio Spanish 1509 kbps 5.1 / 48 kHz / 1509 kbps / 24-bit
Dolby Digital Audio Czech 640 kbps 5.1 / 48 kHz / 640 kbps / DN -4dB
Dolby Digital Audio Polish 640 kbps 5.1 / 48 kHz / 640 kbps / DN -4dB
Dolby Digital Audio English 192 kbps 2.0 / 48 kHz / 192 kbps / DN -4dB

SUBTITLES:

Codec Language Bitrate Description
----- -------- ------- -----------
Presentation Graphics English 0,000 kbps
Presentation Graphics Italian 0,000 kbps
Presentation Graphics Spanish 0,000 kbps
Presentation Graphics Czech 0,000 kbps
Presentation Graphics Polish 0,000 kbps
Presentation Graphics Portuguese 0,000 kbps
Presentation Graphics Greek 0,000 kbps
Presentation Graphics English 0,000 kbps
Presentation Graphics Italian 0,000 kbps
Presentation Graphics Spanish 0,000 kbps
Presentation Graphics Italian 0,000 kbps
Presentation Graphics Spanish 0,000 kbps
Presentation Graphics Czech 0,000 kbps
Presentation Graphics Polish 0,000 kbps

FILES:

Name Time In Length Size Total Bitrate
---- ------- ------ ---- -------------
00800.M2TS 0:00:00.000 2:10:30.697 0 0

CHAPTERS:

Number Time In Length Avg Video Rate Max 1-Sec Rate Max 1-Sec Time Max 5-Sec Rate Max 5-Sec Time Max 10Sec Rate Max 10Sec Time Avg Frame Size Max Frame Size Max Frame Time
------ ------- ------ -------------- -------------- -------------- -------------- -------------- -------------- -------------- -------------- -------------- --------------
1 0:00:00.000 0:06:20.671 0 kbps 0 kbps 00:00:00.000 0 kbps 00:00:00.000 0 kbps 00:00:00.000 0 bytes 0 bytes 00:00:00.000
2 0:06:20.671 0:07:50.970 0 kbps 0 kbps 00:00:00.000 0 kbps 00:00:00.000 0 kbps 00:00:00.000 0 bytes 0 bytes 00:00:00.000
3 0:14:11.642 0:08:01.230 0 kbps 0 kbps 00:00:00.000 0 kbps 00:00:00.000 0 kbps 00:00:00.000 0 bytes 0 bytes 00:00:00.000
4 0:22:12.873 0:04:30.186 0 kbps 0 kbps 00:00:00.000 0 kbps 00:00:00.000 0 kbps 00:00:00.000 0 bytes 0 bytes 00:00:00.000
5 0:26:43.059 0:04:46.661 0 kbps 0 kbps 00:00:00.000 0 kbps 00:00:00.000 0 kbps 00:00:00.000 0 bytes 0 bytes 00:00:00.000
6 0:31:29.721 0:03:34.214 0 kbps 0 kbps 00:00:00.000 0 kbps 00:00:00.000 0 kbps 00:00:00.000 0 bytes 0 bytes 00:00:00.000
7 0:35:03.935 0:07:45.798 0 kbps 0 kbps 00:00:00.000 0 kbps 00:00:00.000 0 kbps 00:00:00.000 0 bytes 0 bytes 00:00:00.000
8 0:42:49.733 0:05:41.799 0 kbps 0 kbps 00:00:00.000 0 kbps 00:00:00.000 0 kbps 00:00:00.000 0 bytes 0 bytes 00:00:00.000
9 0:48:31.533 0:11:07.249 0 kbps 0 kbps 00:00:00.000 0 kbps 00:00:00.000 0 kbps 00:00:00.000 0 bytes 0 bytes 00:00:00.000
10 0:59:38.783 0:08:19.123 0 kbps 0 kbps 00:00:00.000 0 kbps 00:00:00.000 0 kbps 00:00:00.000 0 bytes 0 bytes 00:00:00.000
11 1:07:57.907 0:09:32.697 0 kbps 0 kbps 00:00:00.000 0 kbps 00:00:00.000 0 kbps 00:00:00.000 0 bytes 0 bytes 00:00:00.000
12 1:17:30.604 0:09:54.719 0 kbps 0 kbps 00:00:00.000 0 kbps 00:00:00.000 0 kbps 00:00:00.000 0 bytes 0 bytes 00:00:00.000
13 1:27:25.323 0:08:43.397 0 kbps 0 kbps 00:00:00.000 0 kbps 00:00:00.000 0 kbps 00:00:00.000 0 bytes 0 bytes 00:00:00.000
14 1:36:08.721 0:06:27.011 0 kbps 0 kbps 00:00:00.000 0 kbps 00:00:00.000 0 kbps 00:00:00.000 0 bytes 0 bytes 00:00:00.000
15 1:42:35.732 0:06:44.153 0 kbps 0 kbps 00:00:00.000 0 kbps 00:00:00.000 0 kbps 00:00:00.000 0 bytes 0 bytes 00:00:00.000
16 1:49:19.886 0:05:37.712 0 kbps 0 kbps 00:00:00.000 0 kbps 00:00:00.000 0 kbps 00:00:00.000 0 bytes 0 bytes 00:00:00.000
17 1:54:57.599 0:05:39.922 0 kbps 0 kbps 00:00:00.000 0 kbps 00:00:00.000 0 kbps 00:00:00.000 0 bytes 0 bytes 00:00:00.000
18 2:00:37.521 0:09:53.175 0 kbps 0 kbps 00:00:00.000 0 kbps 00:00:00.000 0 kbps 00:00:00.000 0 bytes 0 bytes 00:00:00.000

STREAM DIAGNOSTICS:

File PID Type Codec Language Seconds Bitrate Bytes Packets
---- --- ---- ----- -------- -------------- -------------- ------------- -----
00800.M2TS 4113 (0x1011) 0x1B AVC 0 0 0 0
00800.M2TS 4352 (0x1100) 0x86 DTS-HD MA eng (English) 0 0 0 0
00800.M2TS 4353 (0x1101) 0x84 AC3+ ita (Italian) 0 0 0 0
00800.M2TS 4354 (0x1102) 0x82 DTS spa (Spanish) 0 0 0 0
00800.M2TS 4355 (0x1103) 0x81 AC3 ces (Czech) 0 0 0 0
00800.M2TS 4356 (0x1104) 0x81 AC3 pol (Polish) 0 0 0 0
00800.M2TS 4357 (0x1105) 0x81 AC3 eng (English) 0 0 0 0
00800.M2TS 4608 (0x1200) 0x90 PGS eng (English) 0 0 0 0
00800.M2TS 4609 (0x1201) 0x90 PGS ita (Italian) 0 0 0 0
00800.M2TS 4610 (0x1202) 0x90 PGS spa (Spanish) 0 0 0 0
00800.M2TS 4611 (0x1203) 0x90 PGS ces (Czech) 0 0 0 0
00800.M2TS 4612 (0x1204) 0x90 PGS pol (Polish) 0 0 0 0
00800.M2TS 4613 (0x1205) 0x90 PGS por (Portuguese) 0 0 0 0
00800.M2TS 4614 (0x1206) 0x90 PGS ell (Greek) 0 0 0 0
00800.M2TS 4615 (0x1207) 0x90 PGS eng (English) 0 0 0 0
00800.M2TS 4616 (0x1208) 0x90 PGS ita (Italian) 0 0 0 0
00800.M2TS 4617 (0x1209) 0x90 PGS spa (Spanish) 0 0 0 0
00800.M2TS 4618 (0x120A) 0x90 PGS ita (Italian) 0 0 0 0
00800.M2TS 4619 (0x120B) 0x90 PGS spa (Spanish) 0 0 0 0
00800.M2TS 4620 (0x120C) 0x90 PGS ces (Czech) 0 0 0 0
00800.M2TS 4621 (0x120D) 0x90 PGS pol (Polish) 0 0 0 0


<---- END FORUMS PASTE ---->

QUICK SUMMARY:

Disc Title: Thor Ragnarok BD50
Disc Size: 44.938.577.094 bytes
Protection: AACS
BD-Java: Yes
Playlist: 00800.MPLS
Size: 0 bytes
Length: 2:10:30.697
Total Bitrate: 0,00 Mbps
Video: MPEG-4 AVC Video / 0 kbps / 1080p / 23,976 fps / 16:9 / High Profile 4.1
Audio: English / DTS-HD Master Audio / 7.1 / 48 kHz / 24-bit (DTS Core: 5.1 / 48 kHz / 1509 kbps / 24-bit / DN -4dB)
Audio: Italian / Dolby Digital Plus Audio / 5.1 / 48 kHz / 512 kbps
Audio: Spanish / DTS Audio / 5.1 / 48 kHz / 1509 kbps / 24-bit
Audio: Czech / Dolby Digital Audio / 5.1 / 48 kHz / 640 kbps / DN -4dB
Audio: Polish / Dolby Digital Audio / 5.1 / 48 kHz / 640 kbps / DN -4dB
Audio: English / Dolby Digital Audio / 2.0 / 48 kHz / 192 kbps / DN -4dB
Subtitle: English / 0,000 kbps
Subtitle: Italian / 0,000 kbps
Subtitle: Spanish / 0,000 kbps
Subtitle: Czech / 0,000 kbps
Subtitle: Polish / 0,000 kbps
Subtitle: Portuguese / 0,000 kbps
Subtitle: Greek / 0,000 kbps
Subtitle: English / 0,000 kbps
Subtitle: Italian / 0,000 kbps
Subtitle: Spanish / 0,000 kbps
Subtitle: Italian / 0,000 kbps
Subtitle: Spanish / 0,000 kbps
Subtitle: Czech / 0,000 kbps
Subtitle: Polish / 0,000 kbps


********************
PLAYLIST: 00701.MPLS
********************

<--- BEGIN FORUMS PASTE --->

Total Video
Title Codec Length Movie Size Disc Size Bitrate Bitrate Main Audio Track Secondary Audio Track
----- ------ ------- -------------- -------------- ------- ------- ------------------ ---------------------
00701.MPLS AVC 0:34:24 0 44.938.577.094 0,00 0,00 DD AC3 5.1 640Kbps




DISC INFO:

Disc Title: Thor Ragnarok BD50
Disc Size: 44.938.577.094 bytes
Protection: AACS
BD-Java: Yes
BDInfo: 0.5.8

PLAYLIST REPORT:

Name: 00701.MPLS
Length: 0:34:24.812 (h:m:s.ms)
Size: 0 bytes
Total Bitrate: 0,00 Mbps

VIDEO:

Codec Bitrate Description
----- ------- -----------
MPEG-4 AVC Video 0 kbps 1080p / 23,976 fps / 16:9 / High Profile 4.1

AUDIO:

Codec Language Bitrate Description
----- -------- ------- -----------
Dolby Digital Audio English 640 kbps 5.1 / 48 kHz / 640 kbps / DN -4dB

SUBTITLES:

Codec Language Bitrate Description
----- -------- ------- -----------
Presentation Graphics English 0,000 kbps
Presentation Graphics Italian 0,000 kbps
Presentation Graphics Spanish 0,000 kbps
Presentation Graphics Czech 0,000 kbps
Presentation Graphics Polish 0,000 kbps
Presentation Graphics Portuguese 0,000 kbps
Presentation Graphics Greek 0,000 kbps

FILES:

Name Time In Length Size Total Bitrate
---- ------- ------ ---- -------------
00908.M2TS 0:00:00.000 0:06:39.816 0 0
00909.M2TS 0:06:39.816 0:05:58.232 0 0
00910.M2TS 0:12:38.048 0:07:34.620 0 0
00911.M2TS 0:20:12.669 0:08:24.462 0 0
00912.M2TS 0:28:37.132 0:05:47.680 0 0

CHAPTERS:

Number Time In Length Avg Video Rate Max 1-Sec Rate Max 1-Sec Time Max 5-Sec Rate Max 5-Sec Time Max 10Sec Rate Max 10Sec Time Avg Frame Size Max Frame Size Max Frame Time
------ ------- ------ -------------- -------------- -------------- -------------- -------------- -------------- -------------- -------------- -------------- --------------
1 0:00:00.000 0:06:39.816 0 kbps 0 kbps 00:00:00.000 0 kbps 00:00:00.000 0 kbps 00:00:00.000 0 bytes 0 bytes 00:00:00.000
2 0:06:39.816 0:05:58.232 0 kbps 0 kbps 00:00:00.000 0 kbps 00:00:00.000 0 kbps 00:00:00.000 0 bytes 0 bytes 00:00:00.000
3 0:12:38.048 0:07:34.620 0 kbps 0 kbps 00:00:00.000 0 kbps 00:00:00.000 0 kbps 00:00:00.000 0 bytes 0 bytes 00:00:00.000
4 0:20:12.669 0:08:24.462 0 kbps 0 kbps 00:00:00.000 0 kbps 00:00:00.000 0 kbps 00:00:00.000 0 bytes 0 bytes 00:00:00.000
5 0:28:37.132 0:05:47.680 0 kbps 0 kbps 00:00:00.000 0 kbps 00:00:00.000 0 kbps 00:00:00.000 0 bytes 0 bytes 00:00:00.000

STREAM DIAGNOSTICS:

File PID Type Codec Language Seconds Bitrate Bytes Packets
---- --- ---- ----- -------- -------------- -------------- ------------- -----
00908.M2TS 4113 (0x1011) 0x1B AVC 0 0 0 0
00908.M2TS 4352 (0x1100) 0x81 AC3 eng (English) 0 0 0 0
00908.M2TS 4608 (0x1200) 0x90 PGS eng (English) 0 0 0 0
00908.M2TS 4609 (0x1201) 0x90 PGS ita (Italian) 0 0 0 0
00908.M2TS 4610 (0x1202) 0x90 PGS spa (Spanish) 0 0 0 0
00908.M2TS 4611 (0x1203) 0x90 PGS ces (Czech) 0 0 0 0
00908.M2TS 4612 (0x1204) 0x90 PGS pol (Polish) 0 0 0 0
00908.M2TS 4613 (0x1205) 0x90 PGS por (Portuguese) 0 0 0 0
00908.M2TS 4614 (0x1206) 0x90 PGS ell (Greek) 0 0 0 0
00909.M2TS 4113 (0x1011) 0x1B AVC 0 0 0 0
00909.M2TS 4352 (0x1100) 0x81 AC3 eng (English) 0 0 0 0
00909.M2TS 4608 (0x1200) 0x90 PGS eng (English) 0 0 0 0
00909.M2TS 4609 (0x1201) 0x90 PGS ita (Italian) 0 0 0 0
00909.M2TS 4610 (0x1202) 0x90 PGS spa (Spanish) 0 0 0 0
00909.M2TS 4611 (0x1203) 0x90 PGS ces (Czech) 0 0 0 0
00909.M2TS 4612 (0x1204) 0x90 PGS pol (Polish) 0 0 0 0
00909.M2TS 4613 (0x1205) 0x90 PGS por (Portuguese) 0 0 0 0
00909.M2TS 4614 (0x1206) 0x90 PGS ell (Greek) 0 0 0 0
00910.M2TS 4113 (0x1011) 0x1B AVC 0 0 0 0
00910.M2TS 4352 (0x1100) 0x81 AC3 eng (English) 0 0 0 0
00910.M2TS 4608 (0x1200) 0x90 PGS eng (English) 0 0 0 0
00910.M2TS 4609 (0x1201) 0x90 PGS ita (Italian) 0 0 0 0
00910.M2TS 4610 (0x1202) 0x90 PGS spa (Spanish) 0 0 0 0
00910.M2TS 4611 (0x1203) 0x90 PGS ces (Czech) 0 0 0 0
00910.M2TS 4612 (0x1204) 0x90 PGS pol (Polish) 0 0 0 0
00910.M2TS 4613 (0x1205) 0x90 PGS por (Portuguese) 0 0 0 0
00910.M2TS 4614 (0x1206) 0x90 PGS ell (Greek) 0 0 0 0
00911.M2TS 4113 (0x1011) 0x1B AVC 0 0 0 0
00911.M2TS 4352 (0x1100) 0x81 AC3 eng (English) 0 0 0 0
00911.M2TS 4608 (0x1200) 0x90 PGS eng (English) 0 0 0 0
00911.M2TS 4609 (0x1201) 0x90 PGS ita (Italian) 0 0 0 0
00911.M2TS 4610 (0x1202) 0x90 PGS spa (Spanish) 0 0 0 0
00911.M2TS 4611 (0x1203) 0x90 PGS ces (Czech) 0 0 0 0
00911.M2TS 4612 (0x1204) 0x90 PGS pol (Polish) 0 0 0 0
00911.M2TS 4613 (0x1205) 0x90 PGS por (Portuguese) 0 0 0 0
00911.M2TS 4614 (0x1206) 0x90 PGS ell (Greek) 0 0 0 0
00912.M2TS 4113 (0x1011) 0x1B AVC 0 0 0 0
00912.M2TS 4352 (0x1100) 0x81 AC3 eng (English) 0 0 0 0
00912.M2TS 4608 (0x1200) 0x90 PGS eng (English) 0 0 0 0
00912.M2TS 4609 (0x1201) 0x90 PGS ita (Italian) 0 0 0 0
00912.M2TS 4610 (0x1202) 0x90 PGS spa (Spanish) 0 0 0 0
00912.M2TS 4611 (0x1203) 0x90 PGS ces (Czech) 0 0 0 0
00912.M2TS 4612 (0x1204) 0x90 PGS pol (Polish) 0 0 0 0
00912.M2TS 4613 (0x1205) 0x90 PGS por (Portuguese) 0 0 0 0
00912.M2TS 4614 (0x1206) 0x90 PGS ell (Greek) 0 0 0 0


<---- END FORUMS PASTE ---->

QUICK SUMMARY:

Disc Title: Thor Ragnarok BD50
Disc Size: 44.938.577.094 bytes
Protection: AACS
BD-Java: Yes
Playlist: 00701.MPLS
Size: 0 bytes
Length: 0:34:24.812
Total Bitrate: 0,00 Mbps
Video: MPEG-4 AVC Video / 0 kbps / 1080p / 23,976 fps / 16:9 / High Profile 4.1
Audio: English / Dolby Digital Audio / 5.1 / 48 kHz / 640 kbps / DN -4dB
Subtitle: English / 0,000 kbps
Subtitle: Italian / 0,000 kbps
Subtitle: Spanish / 0,000 kbps
Subtitle: Czech / 0,000 kbps
Subtitle: Polish / 0,000 kbps
Subtitle: Portuguese / 0,000 kbps
Subtitle: Greek / 0,000 kbps


********************
PLAYLIST: 00705.MPLS
********************

<--- BEGIN FORUMS PASTE --->

Total Video
Title Codec Length Movie Size Disc Size Bitrate Bitrate Main Audio Track Secondary Audio Track
----- ------ ------- -------------- -------------- ------- ------- ------------------ ---------------------
00705.MPLS AVC 0:08:24 0 44.938.577.094 0,00 0,00 DD AC3 5.1 640Kbps




DISC INFO:

Disc Title: Thor Ragnarok BD50
Disc Size: 44.938.577.094 bytes
Protection: AACS
BD-Java: Yes
BDInfo: 0.5.8

PLAYLIST REPORT:

Name: 00705.MPLS
Length: 0:08:24.462 (h:m:s.ms)
Size: 0 bytes
Total Bitrate: 0,00 Mbps

VIDEO:

Codec Bitrate Description
----- ------- -----------
MPEG-4 AVC Video 0 kbps 1080p / 23,976 fps / 16:9 / High Profile 4.1

AUDIO:

Codec Language Bitrate Description
----- -------- ------- -----------
Dolby Digital Audio English 640 kbps 5.1 / 48 kHz / 640 kbps / DN -4dB

SUBTITLES:

Codec Language Bitrate Description
----- -------- ------- -----------
Presentation Graphics English 0,000 kbps
Presentation Graphics Italian 0,000 kbps
Presentation Graphics Spanish 0,000 kbps
Presentation Graphics Czech 0,000 kbps
Presentation Graphics Polish 0,000 kbps
Presentation Graphics Portuguese 0,000 kbps
Presentation Graphics Greek 0,000 kbps

FILES:

Name Time In Length Size Total Bitrate
---- ------- ------ ---- -------------
00911.M2TS 0:00:00.000 0:08:24.462 0 0

CHAPTERS:

Number Time In Length Avg Video Rate Max 1-Sec Rate Max 1-Sec Time Max 5-Sec Rate Max 5-Sec Time Max 10Sec Rate Max 10Sec Time Avg Frame Size Max Frame Size Max Frame Time
------ ------- ------ -------------- -------------- -------------- -------------- -------------- -------------- -------------- -------------- -------------- --------------
1 0:00:00.000 0:08:24.462 0 kbps 0 kbps 00:00:00.000 0 kbps 00:00:00.000 0 kbps 00:00:00.000 0 bytes 0 bytes 00:00:00.000

STREAM DIAGNOSTICS:

File PID Type Codec Language Seconds Bitrate Bytes Packets
---- --- ---- ----- -------- -------------- -------------- ------------- -----
00911.M2TS 4113 (0x1011) 0x1B AVC 0 0 0 0
00911.M2TS 4352 (0x1100) 0x81 AC3 eng (English) 0 0 0 0
00911.M2TS 4608 (0x1200) 0x90 PGS eng (English) 0 0 0 0
00911.M2TS 4609 (0x1201) 0x90 PGS ita (Italian) 0 0 0 0
00911.M2TS 4610 (0x1202) 0x90 PGS spa (Spanish) 0 0 0 0
00911.M2TS 4611 (0x1203) 0x90 PGS ces (Czech) 0 0 0 0
00911.M2TS 4612 (0x1204) 0x90 PGS pol (Polish) 0 0 0 0
00911.M2TS 4613 (0x1205) 0x90 PGS por (Portuguese) 0 0 0 0
00911.M2TS 4614 (0x1206) 0x90 PGS ell (Greek) 0 0 0 0


<---- END FORUMS PASTE ---->

QUICK SUMMARY:

Disc Title: Thor Ragnarok BD50
Disc Size: 44.938.577.094 bytes
Protection: AACS
BD-Java: Yes
Playlist: 00705.MPLS
Size: 0 bytes
Length: 0:08:24.462
Total Bitrate: 0,00 Mbps
Video: MPEG-4 AVC Video / 0 kbps / 1080p / 23,976 fps / 16:9 / High Profile 4.1
Audio: English / Dolby Digital Audio / 5.1 / 48 kHz / 640 kbps / DN -4dB
Subtitle: English / 0,000 kbps
Subtitle: Italian / 0,000 kbps
Subtitle: Spanish / 0,000 kbps
Subtitle: Czech / 0,000 kbps
Subtitle: Polish / 0,000 kbps
Subtitle: Portuguese / 0,000 kbps
Subtitle: Greek / 0,000 kbps


********************
PLAYLIST: 00704.MPLS
********************

<--- BEGIN FORUMS PASTE --->

Total Video
Title Codec Length Movie Size Disc Size Bitrate Bitrate Main Audio Track Secondary Audio Track
----- ------ ------- -------------- -------------- ------- ------- ------------------ ---------------------
00704.MPLS AVC 0:07:34 0 44.938.577.094 0,00 0,00 DD AC3 5.1 640Kbps




DISC INFO:

Disc Title: Thor Ragnarok BD50
Disc Size: 44.938.577.094 bytes
Protection: AACS
BD-Java: Yes
BDInfo: 0.5.8

PLAYLIST REPORT:

Name: 00704.MPLS
Length: 0:07:34.620 (h:m:s.ms)
Size: 0 bytes
Total Bitrate: 0,00 Mbps

VIDEO:

Codec Bitrate Description
----- ------- -----------
MPEG-4 AVC Video 0 kbps 1080p / 23,976 fps / 16:9 / High Profile 4.1

AUDIO:

Codec Language Bitrate Description
----- -------- ------- -----------
Dolby Digital Audio English 640 kbps 5.1 / 48 kHz / 640 kbps / DN -4dB

SUBTITLES:

Codec Language Bitrate Description
----- -------- ------- -----------
Presentation Graphics English 0,000 kbps
Presentation Graphics Italian 0,000 kbps
Presentation Graphics Spanish 0,000 kbps
Presentation Graphics Czech 0,000 kbps
Presentation Graphics Polish 0,000 kbps
Presentation Graphics Portuguese 0,000 kbps
Presentation Graphics Greek 0,000 kbps

FILES:

Name Time In Length Size Total Bitrate
---- ------- ------ ---- -------------
00910.M2TS 0:00:00.000 0:07:34.620 0 0

CHAPTERS:

Number Time In Length Avg Video Rate Max 1-Sec Rate Max 1-Sec Time Max 5-Sec Rate Max 5-Sec Time Max 10Sec Rate Max 10Sec Time Avg Frame Size Max Frame Size Max Frame Time
------ ------- ------ -------------- -------------- -------------- -------------- -------------- -------------- -------------- -------------- -------------- --------------
1 0:00:00.000 0:07:34.620 0 kbps 0 kbps 00:00:00.000 0 kbps 00:00:00.000 0 kbps 00:00:00.000 0 bytes 0 bytes 00:00:00.000

STREAM DIAGNOSTICS:

File PID Type Codec Language Seconds Bitrate Bytes Packets
---- --- ---- ----- -------- -------------- -------------- ------------- -----
00910.M2TS 4113 (0x1011) 0x1B AVC 0 0 0 0
00910.M2TS 4352 (0x1100) 0x81 AC3 eng (English) 0 0 0 0
00910.M2TS 4608 (0x1200) 0x90 PGS eng (English) 0 0 0 0
00910.M2TS 4609 (0x1201) 0x90 PGS ita (Italian) 0 0 0 0
00910.M2TS 4610 (0x1202) 0x90 PGS spa (Spanish) 0 0 0 0
00910.M2TS 4611 (0x1203) 0x90 PGS ces (Czech) 0 0 0 0
00910.M2TS 4612 (0x1204) 0x90 PGS pol (Polish) 0 0 0 0
00910.M2TS 4613 (0x1205) 0x90 PGS por (Portuguese) 0 0 0 0
00910.M2TS 4614 (0x1206) 0x90 PGS ell (Greek) 0 0 0 0


<---- END FORUMS PASTE ---->

QUICK SUMMARY:

Disc Title: Thor Ragnarok BD50
Disc Size: 44.938.577.094 bytes
Protection: AACS
BD-Java: Yes
Playlist: 00704.MPLS
Size: 0 bytes
Length: 0:07:34.620
Total Bitrate: 0,00 Mbps
Video: MPEG-4 AVC Video / 0 kbps / 1080p / 23,976 fps / 16:9 / High Profile 4.1
Audio: English / Dolby Digital Audio / 5.1 / 48 kHz / 640 kbps / DN -4dB
Subtitle: English / 0,000 kbps
Subtitle: Italian / 0,000 kbps
Subtitle: Spanish / 0,000 kbps
Subtitle: Czech / 0,000 kbps
Subtitle: Polish / 0,000 kbps
Subtitle: Portuguese / 0,000 kbps
Subtitle: Greek / 0,000 kbps


********************
PLAYLIST: 00702.MPLS
********************

<--- BEGIN FORUMS PASTE --->

Total Video
Title Codec Length Movie Size Disc Size Bitrate Bitrate Main Audio Track Secondary Audio Track
----- ------ ------- -------------- -------------- ------- ------- ------------------ ---------------------
00702.MPLS AVC 0:06:39 0 44.938.577.094 0,00 0,00 DD AC3 5.1 640Kbps




DISC INFO:

Disc Title: Thor Ragnarok BD50
Disc Size: 44.938.577.094 bytes
Protection: AACS
BD-Java: Yes
BDInfo: 0.5.8

PLAYLIST REPORT:

Name: 00702.MPLS
Length: 0:06:39.816 (h:m:s.ms)
Size: 0 bytes
Total Bitrate: 0,00 Mbps

VIDEO:

Codec Bitrate Description
----- ------- -----------
MPEG-4 AVC Video 0 kbps 1080p / 23,976 fps / 16:9 / High Profile 4.1

AUDIO:

Codec Language Bitrate Description
----- -------- ------- -----------
Dolby Digital Audio English 640 kbps 5.1 / 48 kHz / 640 kbps / DN -4dB

SUBTITLES:

Codec Language Bitrate Description
----- -------- ------- -----------
Presentation Graphics English 0,000 kbps
Presentation Graphics Italian 0,000 kbps
Presentation Graphics Spanish 0,000 kbps
Presentation Graphics Czech 0,000 kbps
Presentation Graphics Polish 0,000 kbps
Presentation Graphics Portuguese 0,000 kbps
Presentation Graphics Greek 0,000 kbps

FILES:

Name Time In Length Size Total Bitrate
---- ------- ------ ---- -------------
00908.M2TS 0:00:00.000 0:06:39.816 0 0

CHAPTERS:

Number Time In Length Avg Video Rate Max 1-Sec Rate Max 1-Sec Time Max 5-Sec Rate Max 5-Sec Time Max 10Sec Rate Max 10Sec Time Avg Frame Size Max Frame Size Max Frame Time
------ ------- ------ -------------- -------------- -------------- -------------- -------------- -------------- -------------- -------------- -------------- --------------
1 0:00:00.000 0:06:39.816 0 kbps 0 kbps 00:00:00.000 0 kbps 00:00:00.000 0 kbps 00:00:00.000 0 bytes 0 bytes 00:00:00.000

STREAM DIAGNOSTICS:

File PID Type Codec Language Seconds Bitrate Bytes Packets
---- --- ---- ----- -------- -------------- -------------- ------------- -----
00908.M2TS 4113 (0x1011) 0x1B AVC 0 0 0 0
00908.M2TS 4352 (0x1100) 0x81 AC3 eng (English) 0 0 0 0
00908.M2TS 4608 (0x1200) 0x90 PGS eng (English) 0 0 0 0
00908.M2TS 4609 (0x1201) 0x90 PGS ita (Italian) 0 0 0 0
00908.M2TS 4610 (0x1202) 0x90 PGS spa (Spanish) 0 0 0 0
00908.M2TS 4611 (0x1203) 0x90 PGS ces (Czech) 0 0 0 0
00908.M2TS 4612 (0x1204) 0x90 PGS pol (Polish) 0 0 0 0
00908.M2TS 4613 (0x1205) 0x90 PGS por (Portuguese) 0 0 0 0
00908.M2TS 4614 (0x1206) 0x90 PGS ell (Greek) 0 0 0 0


<---- END FORUMS PASTE ---->

QUICK SUMMARY:

Disc Title: Thor Ragnarok BD50
Disc Size: 44.938.577.094 bytes
Protection: AACS
BD-Java: Yes
Playlist: 00702.MPLS
Size: 0 bytes
Length: 0:06:39.816
Total Bitrate: 0,00 Mbps
Video: MPEG-4 AVC Video / 0 kbps / 1080p / 23,976 fps / 16:9 / High Profile 4.1
Audio: English / Dolby Digital Audio / 5.1 / 48 kHz / 640 kbps / DN -4dB
Subtitle: English / 0,000 kbps
Subtitle: Italian / 0,000 kbps
Subtitle: Spanish / 0,000 kbps
Subtitle: Czech / 0,000 kbps
Subtitle: Polish / 0,000 kbps
Subtitle: Portuguese / 0,000 kbps
Subtitle: Greek / 0,000 kbps


********************
PLAYLIST: 00703.MPLS
********************

<--- BEGIN FORUMS PASTE --->

Total Video
Title Codec Length Movie Size Disc Size Bitrate Bitrate Main Audio Track Secondary Audio Track
----- ------ ------- -------------- -------------- ------- ------- ------------------ ---------------------
00703.MPLS AVC 0:05:58 0 44.938.577.094 0,00 0,00 DD AC3 5.1 640Kbps




DISC INFO:

Disc Title: Thor Ragnarok BD50
Disc Size: 44.938.577.094 bytes
Protection: AACS
BD-Java: Yes
BDInfo: 0.5.8

PLAYLIST REPORT:

Name: 00703.MPLS
Length: 0:05:58.232 (h:m:s.ms)
Size: 0 bytes
Total Bitrate: 0,00 Mbps

VIDEO:

Codec Bitrate Description
----- ------- -----------
MPEG-4 AVC Video 0 kbps 1080p / 23,976 fps / 16:9 / High Profile 4.1

AUDIO:

Codec Language Bitrate Description
----- -------- ------- -----------
Dolby Digital Audio English 640 kbps 5.1 / 48 kHz / 640 kbps / DN -4dB

SUBTITLES:

Codec Language Bitrate Description
----- -------- ------- -----------
Presentation Graphics English 0,000 kbps
Presentation Graphics Italian 0,000 kbps
Presentation Graphics Spanish 0,000 kbps
Presentation Graphics Czech 0,000 kbps
Presentation Graphics Polish 0,000 kbps
Presentation Graphics Portuguese 0,000 kbps
Presentation Graphics Greek 0,000 kbps

FILES:

Name Time In Length Size Total Bitrate
---- ------- ------ ---- -------------
00909.M2TS 0:00:00.000 0:05:58.232 0 0

CHAPTERS:

Number Time In Length Avg Video Rate Max 1-Sec Rate Max 1-Sec Time Max 5-Sec Rate Max 5-Sec Time Max 10Sec Rate Max 10Sec Time Avg Frame Size Max Frame Size Max Frame Time
------ ------- ------ -------------- -------------- -------------- -------------- -------------- -------------- -------------- -------------- -------------- --------------
1 0:00:00.000 0:05:58.232 0 kbps 0 kbps 00:00:00.000 0 kbps 00:00:00.000 0 kbps 00:00:00.000 0 bytes 0 bytes 00:00:00.000

STREAM DIAGNOSTICS:

File PID Type Codec Language Seconds Bitrate Bytes Packets
---- --- ---- ----- -------- -------------- -------------- ------------- -----
00909.M2TS 4113 (0x1011) 0x1B AVC 0 0 0 0
00909.M2TS 4352 (0x1100) 0x81 AC3 eng (English) 0 0 0 0
00909.M2TS 4608 (0x1200) 0x90 PGS eng (English) 0 0 0 0
00909.M2TS 4609 (0x1201) 0x90 PGS ita (Italian) 0 0 0 0
00909.M2TS 4610 (0x1202) 0x90 PGS spa (Spanish) 0 0 0 0
00909.M2TS 4611 (0x1203) 0x90 PGS ces (Czech) 0 0 0 0
00909.M2TS 4612 (0x1204) 0x90 PGS pol (Polish) 0 0 0 0
00909.M2TS 4613 (0x1205) 0x90 PGS por (Portuguese) 0 0 0 0
00909.M2TS 4614 (0x1206) 0x90 PGS ell (Greek) 0 0 0 0


<---- END FORUMS PASTE ---->

QUICK SUMMARY:

Disc Title: Thor Ragnarok BD50
Disc Size: 44.938.577.094 bytes
Protection: AACS
BD-Java: Yes
Playlist: 00703.MPLS
Size: 0 bytes
Length: 0:05:58.232
Total Bitrate: 0,00 Mbps
Video: MPEG-4 AVC Video / 0 kbps / 1080p / 23,976 fps / 16:9 / High Profile 4.1
Audio: English / Dolby Digital Audio / 5.1 / 48 kHz / 640 kbps / DN -4dB
Subtitle: English / 0,000 kbps
Subtitle: Italian / 0,000 kbps
Subtitle: Spanish / 0,000 kbps
Subtitle: Czech / 0,000 kbps
Subtitle: Polish / 0,000 kbps
Subtitle: Portuguese / 0,000 kbps
Subtitle: Greek / 0,000 kbps


********************
PLAYLIST: 00706.MPLS
********************

<--- BEGIN FORUMS PASTE --->

Total Video
Title Codec Length Movie Size Disc Size Bitrate Bitrate Main Audio Track Secondary Audio Track
----- ------ ------- -------------- -------------- ------- ------- ------------------ ---------------------
00706.MPLS AVC 0:05:47 0 44.938.577.094 0,00 0,00 DD AC3 5.1 640Kbps




DISC INFO:

Disc Title: Thor Ragnarok BD50
Disc Size: 44.938.577.094 bytes
Protection: AACS
BD-Java: Yes
BDInfo: 0.5.8

PLAYLIST REPORT:

Name: 00706.MPLS
Length: 0:05:47.680 (h:m:s.ms)
Size: 0 bytes
Total Bitrate: 0,00 Mbps

VIDEO:

Codec Bitrate Description
----- ------- -----------
MPEG-4 AVC Video 0 kbps 1080p / 23,976 fps / 16:9 / High Profile 4.1

AUDIO:

Codec Language Bitrate Description
----- -------- ------- -----------
Dolby Digital Audio English 640 kbps 5.1 / 48 kHz / 640 kbps / DN -4dB

SUBTITLES:

Codec Language Bitrate Description
----- -------- ------- -----------
Presentation Graphics English 0,000 kbps
Presentation Graphics Italian 0,000 kbps
Presentation Graphics Spanish 0,000 kbps
Presentation Graphics Czech 0,000 kbps
Presentation Graphics Polish 0,000 kbps
Presentation Graphics Portuguese 0,000 kbps
Presentation Graphics Greek 0,000 kbps

FILES:

Name Time In Length Size Total Bitrate
---- ------- ------ ---- -------------
00912.M2TS 0:00:00.000 0:05:47.680 0 0

CHAPTERS:

Number Time In Length Avg Video Rate Max 1-Sec Rate Max 1-Sec Time Max 5-Sec Rate Max 5-Sec Time Max 10Sec Rate Max 10Sec Time Avg Frame Size Max Frame Size Max Frame Time
------ ------- ------ -------------- -------------- -------------- -------------- -------------- -------------- -------------- -------------- -------------- --------------
1 0:00:00.000 0:05:47.680 0 kbps 0 kbps 00:00:00.000 0 kbps 00:00:00.000 0 kbps 00:00:00.000 0 bytes 0 bytes 00:00:00.000

STREAM DIAGNOSTICS:

File PID Type Codec Language Seconds Bitrate Bytes Packets
---- --- ---- ----- -------- -------------- -------------- ------------- -----
00912.M2TS 4113 (0x1011) 0x1B AVC 0 0 0 0
00912.M2TS 4352 (0x1100) 0x81 AC3 eng (English) 0 0 0 0
00912.M2TS 4608 (0x1200) 0x90 PGS eng (English) 0 0 0 0
00912.M2TS 4609 (0x1201) 0x90 PGS ita (Italian) 0 0 0 0
00912.M2TS 4610 (0x1202) 0x90 PGS spa (Spanish) 0 0 0 0
00912.M2TS 4611 (0x1203) 0x90 PGS ces (Czech) 0 0 0 0
00912.M2TS 4612 (0x1204) 0x90 PGS pol (Polish) 0 0 0 0
00912.M2TS 4613 (0x1205) 0x90 PGS por (Portuguese) 0 0 0 0
00912.M2TS 4614 (0x1206) 0x90 PGS ell (Greek) 0 0 0 0


<---- END FORUMS PASTE ---->

QUICK SUMMARY:

Disc Title: Thor Ragnarok BD50
Disc Size: 44.938.577.094 bytes
Protection: AACS
BD-Java: Yes
Playlist: 00706.MPLS
Size: 0 bytes
Length: 0:05:47.680
Total Bitrate: 0,00 Mbps
Video: MPEG-4 AVC Video / 0 kbps / 1080p / 23,976 fps / 16:9 / High Profile 4.1
Audio: English / Dolby Digital Audio / 5.1 / 48 kHz / 640 kbps / DN -4dB
Subtitle: English / 0,000 kbps
Subtitle: Italian / 0,000 kbps
Subtitle: Spanish / 0,000 kbps
Subtitle: Czech / 0,000 kbps
Subtitle: Polish / 0,000 kbps
Subtitle: Portuguese / 0,000 kbps
Subtitle: Greek / 0,000 kbps


********************
PLAYLIST: 00707.MPLS
********************

<--- BEGIN FORUMS PASTE --->

Total Video
Title Codec Length Movie Size Disc Size Bitrate Bitrate Main Audio Track Secondary Audio Track
----- ------ ------- -------------- -------------- ------- ------- ------------------ ---------------------
00707.MPLS AVC 0:06:08 0 44.938.577.094 0,00 0,00 DD AC3 5.1 640Kbps




DISC INFO:

Disc Title: Thor Ragnarok BD50
Disc Size: 44.938.577.094 bytes
Protection: AACS
BD-Java: Yes
BDInfo: 0.5.8

PLAYLIST REPORT:

Name: 00707.MPLS
Length: 0:06:08.826 (h:m:s.ms)
Size: 0 bytes
Total Bitrate: 0,00 Mbps

VIDEO:

Codec Bitrate Description
----- ------- -----------
MPEG-4 AVC Video 0 kbps 1080p / 23,976 fps / 16:9 / High Profile 4.1

AUDIO:

Codec Language Bitrate Description
----- -------- ------- -----------
Dolby Digital Audio English 640 kbps 5.1 / 48 kHz / 640 kbps / DN -4dB

SUBTITLES:

Codec Language Bitrate Description
----- -------- ------- -----------
Presentation Graphics English 0,000 kbps
Presentation Graphics Italian 0,000 kbps
Presentation Graphics Spanish 0,000 kbps
Presentation Graphics Czech 0,000 kbps
Presentation Graphics Polish 0,000 kbps
Presentation Graphics Portuguese 0,000 kbps
Presentation Graphics Greek 0,000 kbps

FILES:

Name Time In Length Size Total Bitrate
---- ------- ------ ---- -------------
00913.M2TS 0:00:00.000 0:06:08.826 0 0

CHAPTERS:

Number Time In Length Avg Video Rate Max 1-Sec Rate Max 1-Sec Time Max 5-Sec Rate Max 5-Sec Time Max 10Sec Rate Max 10Sec Time Avg Frame Size Max Frame Size Max Frame Time
------ ------- ------ -------------- -------------- -------------- -------------- -------------- -------------- -------------- -------------- -------------- --------------
1 0:00:00.000 0:06:08.826 0 kbps 0 kbps 00:00:00.000 0 kbps 00:00:00.000 0 kbps 00:00:00.000 0 bytes 0 bytes 00:00:00.000

STREAM DIAGNOSTICS:

File PID Type Codec Language Seconds Bitrate Bytes Packets
---- --- ---- ----- -------- -------------- -------------- ------------- -----
00913.M2TS 4113 (0x1011) 0x1B AVC 0 0 0 0
00913.M2TS 4352 (0x1100) 0x81 AC3 eng (English) 0 0 0 0
00913.M2TS 4608 (0x1200) 0x90 PGS eng (English) 0 0 0 0
00913.M2TS 4609 (0x1201) 0x90 PGS ita (Italian) 0 0 0 0
00913.M2TS 4610 (0x1202) 0x90 PGS spa (Spanish) 0 0 0 0
00913.M2TS 4611 (0x1203) 0x90 PGS ces (Czech) 0 0 0 0
00913.M2TS 4612 (0x1204) 0x90 PGS pol (Polish) 0 0 0 0
00913.M2TS 4613 (0x1205) 0x90 PGS por (Portuguese) 0 0 0 0
00913.M2TS 4614 (0x1206) 0x90 PGS ell (Greek) 0 0 0 0


<---- END FORUMS PASTE ---->

QUICK SUMMARY:

Disc Title: Thor Ragnarok BD50
Disc Size: 44.938.577.094 bytes
Protection: AACS
BD-Java: Yes
Playlist: 00707.MPLS
Size: 0 bytes
Length: 0:06:08.826
Total Bitrate: 0,00 Mbps
Video: MPEG-4 AVC Video / 0 kbps / 1080p / 23,976 fps / 16:9 / High Profile 4.1
Audio: English / Dolby Digital Audio / 5.1 / 48 kHz / 640 kbps / DN -4dB
Subtitle: English / 0,000 kbps
Subtitle: Italian / 0,000 kbps
Subtitle: Spanish / 0,000 kbps
Subtitle: Czech / 0,000 kbps
Subtitle: Polish / 0,000 kbps
Subtitle: Portuguese / 0,000 kbps
Subtitle: Greek / 0,000 kbps


********************
PLAYLIST: 00709.MPLS
********************

<--- BEGIN FORUMS PASTE --->

Total Video
Title Codec Length Movie Size Disc Size Bitrate Bitrate Main Audio Track Secondary Audio Track
----- ------ ------- -------------- -------------- ------- ------- ------------------ ---------------------
00709.MPLS AVC 0:05:43 0 44.938.577.094 0,00 0,00 DD AC3 2.0 320Kbps


[code]

DISC INFO:

Disc Title: Thor Ragnarok BD50
Disc Size: 44.938.577.094 bytes
Protection: AACS
BD-Java: Yes
BDInfo: 0.5.8

PLAYLIST REPORT:

Name: 00709.MPLS
Length: 0:05:43.092 (h:m:s.ms)
Size: 0 bytes
Total Bitrate: 0,00 Mbps

VIDEO:

Codec Bitrate Description
----- ------- -----------
MPEG-4 AVC Video 0 kbps 1080p / 23,976 fps / 16:9 / High Profile 4.1

AUDIO:

Codec Language Bitrate Description
----- -------- ------- -----------
Dolby Digital Audio English 320 kbps 2.0 / 48 kHz / 320 kbps / DN -4dB

SUBTITLES:

Codec Language Bitrate Description
----- -------- ------- -----------
Presentation Graphics English 0,000 kbps
Presentation Graphics Italian 0,000 kbps
Presentation Graphics Spanish 0,000 kbps
Presentation Graphics Czech 0,000 kbps
Presentation Graphics Polish 0,000 kbps
Presentation Graphics Portuguese 0,000 kbps
Presentation Graphics Greek 0,000 kbps

FILES:

Name Time In Length Size Total Bitrate
---- ------- ------ ---- -------------
00916.M2TS 0:00:00.000 0:02:12.590 0 0
00917.M2TS 0:02:12.590 0:02:06.584 0 0
00918.M2TS 0:04:19.175 0:01:23.917 0 0

CHAPTERS:

Number Time In Length Avg Video Rate Max 1-Sec Rate Max 1-Sec Time Max 5-Sec Rate Max 5-Sec Time Max 10Sec Rate Max 10Sec Time Avg Frame Size Max Frame Size Max Frame Time
------ ------- ------ -------------- -------------- -------------- -------------- -------------- -------------- -------------- -------------- -------------- --------------
1 0:00:00.000 0:02:12.590 0 kbps 0 kbps 00:00:00.000 0 kbps 00:00:00.000 0 kbps 00:00:00.000 0 bytes 0 bytes 00:00:00.000
2 0:02:12.590 0:02:06.584 0 kbps 0 kbps 00:00:00.000 0 kbps 00:00:00.000 0 kbps 00:00:00.000 0 bytes 0 bytes 00:00:00.000
3 0:04:19.175 0:01:23.917 0 kbps 0 kbps
General
ID única : 27227571919676745080637331348877447832 (0x147BD6F08121D35C6DC9B6A218EF9298)
Nombre completo : Thor Ragnarok BDRemux HD1080 DTS-51.mkv
Formato : Matroska
Formato de la versión : Version 4 / Version 2
Tamaño de archivo : 27,7 GiB
Duración : 2 h 10 min
Modo de tasa de bits : Variable
Tasa de bits general : 30,4 Mb/s
Película : MARVEL'S THOR: RAGNAROK - BLU-RAY
Fecha de codificación : UTC 2018-03-19 15:08:32
Aplicación de codifición : mkvmerge v19.0.0 ('Brave Captain') 64-bit
Librería de codificación : libebml v1.3.5 + libmatroska v1.4.8

Vídeo
ID : 1
Formato : AVC
Formato/Info : Advanced Video Codec
Formato del perfil : High@L4.1
Ajustes del formato : CABAC / 4 Ref Frames
Ajustes del formato, CABAC : Sí
Ajustes del formato, RefFrames : 4 fotogramas
ID códec : V_MPEG4/ISO/AVC
Duración : 2 h 10 min
Tipo de tasa de bits : Variable
Tasa de bits : 23,8 Mb/s
Tasa de bits máxima : 34,0 Mb/s
Ancho : 1 920 píxeles
Alto : 1 080 píxeles
Relación de aspecto : 16:9
Modo velocidad fotogramas : Constante
Velocidad de fotogramas : 23,976 (24000/1001) FPS
Espacio de color : YUV
Submuestreo croma : 4:2:0
Profundidad bits : 8 bits
Tipo barrido : Progresivo
Bits/(píxel*fotograma) : 0.479
Tamaño de pista : 21,7 GiB (79%)
Idioma : Inglés
Default : No
Forced : No

Audio #1
ID : 2
Formato : DTS
Formato/Info : Digital Theater Systems
ID códec : A_DTS
Duración : 2 h 10 min
Tipo de tasa de bits : Constante
Tasa de bits : 1 509 kb/s
Canal(es) : 6 canales
Posiciones del canal : Front: L C R, Side: L R, LFE
Velocidad de muestreo : 48,0 kHz
Velocidad de fotogramas : 93,750 FPS (512 SPF)
Profundidad bits : 24 bits
Modo de compresión : Con pérdida
Retraso relativo al vídeo : 21 ms
Tamaño de pista : 1,38 GiB (5%)
Título : Surround 5.1
Idioma : Español
Default : No
Forced : No

Audio #2
ID : 3
Formato : DTS
Formato/Info : Digital Theater Systems
Formato del perfil : MA / Core
ID códec : A_DTS
Duración : 2 h 10 min
Tipo de tasa de bits : Variable / Constante
Tasa de bits : 4 891 kb/s / 1 509 kb/s
Canal(es) : 8 canales / 6 canales
Posiciones del canal : Front: L C R, Side: L R, Back: L R, LFE / Front: L C R, Side: L R, LFE
Velocidad de muestreo : 48,0 kHz
Velocidad de fotogramas : 93,750 FPS (512 SPF)
Profundidad bits : 24 bits
Modo de compresión : Sin pérdida / Lossy
Tamaño de pista : 4,46 GiB (16%)
Título : Surround 7.1
Idioma : Inglés
Default : Sí
Forced : No

Texto #1
ID : 4
Formato : PGS
Modo multiplexor : zlib
ID códec : S_HDMV/PGS
ID códec/Info : Picture based subtitle format used on BDs/HD-DVDs
Duración : 2 h 10 min
Tasa de bits : 38,1 kb/s
ElementCount : 4162
Tamaño de pista : 35,5 MiB (0%)
Idioma : Inglés
Default : No
Forced : No

Texto #2
ID : 5
Formato : PGS
Modo multiplexor : zlib
ID códec : S_HDMV/PGS
ID códec/Info : Picture based subtitle format used on BDs/HD-DVDs
Duración : 2 h 9 min
Tasa de bits : 31,6 kb/s
ElementCount : 3202
Tamaño de pista : 29,3 MiB (0%)
Idioma : Italiano
Default : No
Forced : No

Texto #3
ID : 6
Formato : PGS
Modo multiplexor : zlib
ID códec : S_HDMV/PGS
ID códec/Info : Picture based subtitle format used on BDs/HD-DVDs
Duración : 2 h 9 min
Tasa de bits : 29,5 kb/s
ElementCount : 3128
Tamaño de pista : 27,3 MiB (0%)
Idioma : Español
Default : No
Forced : No

Texto #4
ID : 7
Formato : PGS
Modo multiplexor : zlib
ID códec : S_HDMV/PGS
ID códec/Info : Picture based subtitle format used on BDs/HD-DVDs
Duración : 2 h 9 min
Tasa de bits : 29,0 kb/s
ElementCount : 3134
Tamaño de pista : 26,9 MiB (0%)
Idioma : Checo
Default : No
Forced : No

Texto #5
ID : 8
Formato : PGS
Modo multiplexor : zlib
ID códec : S_HDMV/PGS
ID códec/Info : Picture based subtitle format used on BDs/HD-DVDs
Duración : 2 h 9 min
Tasa de bits : 28,1 kb/s
ElementCount : 3064
Tamaño de pista : 26,0 MiB (0%)
Idioma : Polaco
Default : No
Forced : No

Texto #6
ID : 9
Formato : PGS
Modo multiplexor : zlib
ID códec : S_HDMV/PGS
ID códec/Info : Picture based subtitle format used on BDs/HD-DVDs
Duración : 2 h 9 min
Tasa de bits : 31,7 kb/s
ElementCount : 3148
Tamaño de pista : 29,4 MiB (0%)
Idioma : Portugués
Default : No
Forced : No

Texto #7
ID : 10
Formato : PGS
Modo multiplexor : zlib
ID códec : S_HDMV/PGS
ID códec/Info : Picture based subtitle format used on BDs/HD-DVDs
Duración : 2 h 9 min
Tasa de bits : 32,1 kb/s
ElementCount : 3118
Tamaño de pista : 29,7 MiB (0%)
Idioma : Griego
Default : No
Forced : No

Texto #8
ID : 11
Formato : PGS
Modo multiplexor : zlib
ID códec : S_HDMV/PGS
ID códec/Info : Picture based subtitle format used on BDs/HD-DVDs
Duración : 2 h 10 min
Tasa de bits : 58,7 kb/s
ElementCount : 4458
Tamaño de pista : 54,7 MiB (0%)
Idioma : Inglés
Default : No
Forced : No

Texto #9
ID : 12
Formato : PGS
Modo multiplexor : zlib
ID códec : S_HDMV/PGS
ID códec/Info : Picture based subtitle format used on BDs/HD-DVDs
Duración : 2 h 10 min
Tasa de bits : 52,8 kb/s
ElementCount : 4322
Tamaño de pista : 49,2 MiB (0%)
Idioma : Italiano
Default : No
Forced : No

Texto #10
ID : 13
Formato : PGS
Modo multiplexor : zlib
ID códec : S_HDMV/PGS
ID códec/Info : Picture based subtitle format used on BDs/HD-DVDs
Duración : 2 h 10 min
Tasa de bits : 51,6 kb/s
ElementCount : 4322
Tamaño de pista : 48,1 MiB (0%)
Idioma : Español
Default : No
Forced : No

Texto #11
ID : 14
Formato : PGS
Modo multiplexor : zlib
ID códec : S_HDMV/PGS
ID códec/Info : Picture based subtitle format used on BDs/HD-DVDs
Duración : 3 s 358 ms
Tasa de bits : 72,1 kb/s
ElementCount : 2
Tamaño de pista : 29,5 KiB (0%)
Idioma : Italiano
Default : No
Forced : No

Texto #12
ID : 15
Formato : PGS
Modo multiplexor : zlib
ID códec : S_HDMV/PGS
ID códec/Info : Picture based subtitle format used on BDs/HD-DVDs
Duración : 3 s 774 ms
Tasa de bits : 70,4 kb/s
ElementCount : 2
Tamaño de pista : 32,5 KiB (0%)
Idioma : Español
Default : No
Forced : No

Texto #13
ID : 16
Formato : PGS
Modo multiplexor : zlib
ID códec : S_HDMV/PGS
ID códec/Info : Picture based subtitle format used on BDs/HD-DVDs
Duración : 1 h 56 min
Tasa de bits : 68 b/s
ElementCount : 4
Tamaño de pista : 58,6 KiB (0%)
Idioma : Checo
Default : No
Forced : No

Texto #14
ID : 17
Formato : PGS
Modo multiplexor : zlib
ID códec : S_HDMV/PGS
ID códec/Info : Picture based subtitle format used on BDs/HD-DVDs
Duración : 3 s 775 ms
Tasa de bits : 27,1 kb/s
ElementCount : 2
Tamaño de pista : 12,5 KiB (0%)
Idioma : Polaco
Default : No
Forced : No

Menú
00:00:00.000 : en:Chapter 01
00:06:20.671 : en:Chapter 02
00:14:11.642 : en:Chapter 03
00:22:12.873 : en:Chapter 04
00:26:43.059 : en:Chapter 05
00:31:29.721 : en:Chapter 06
00:35:04.519 : en:Chapter 07
00:42:49.733 : en:Chapter 08
00:48:31.617 : en:Chapter 09
00:59:38.783 : en:Chapter 10
01:07:57.907 : en:Chapter 11
01:17:30.604 : en:Chapter 12
01:27:25.323 : en:Chapter 13
01:36:08.721 : en:Chapter 14
01:42:35.732 : en:Chapter 15
01:49:19.886 : en:Chapter 16
01:54:57.599 : en:Chapter 17
02:00:37.521 : en:Chapter 18


Reportar Error Visitas: 136