Paste MC

Mega Colecciones

Dragon Ball Z 8 Temporada (1994-1996) 1080p BD50 NFO

DISC INFO:

Disc Title: DragonBallZ S8 D1
Disc Size: 48,459,643,796 bytes
Protection: AACS
BD-Java: No
BDInfo: 0.7.1

PLAYLIST REPORT:

Name: 00008.MPLS
Length: 4:02:15.020 (h:m:s.ms)
Size: 0 bytes
Total Bitrate: 0.00 Mbps

VIDEO:

Codec Bitrate Description
----- ------- -----------
MPEG-4 AVC Video 0 kbps 1080p / 23.976 fps / 16:9 / High Profile 4.1

AUDIO:

Codec Language Bitrate Description
----- -------- ------- -----------
Dolby TrueHD Audio English 0 kbps 5.1 / 48 kHz / 16-bit (AC3 Embedded: 5.1 / 48 kHz / 384 kbps / DN -7dB)
Dolby TrueHD Audio English 0 kbps 2.0 / 48 kHz / 24-bit (AC3 Embedded: 2.0 / 48 kHz / 192 kbps / DN -7dB)
Dolby TrueHD Audio Japanese 0 kbps 1.0 / 48 kHz / 24-bit (AC3 Embedded: 1.0 / 48 kHz / 96 kbps / DN -7dB)

SUBTITLES:

Codec Language Bitrate Description
----- -------- ------- -----------
Presentation Graphics English 0.000 kbps
Presentation Graphics English 0.000 kbps

FILES:

Name Time In Length Size Total Bitrate
---- ------- ------ ---- -------------
00014.M2TS 0:00:00.000 0:24:12.451 0 0
00015.M2TS 0:24:12.451 0:24:12.451 0 0
00016.M2TS 0:48:24.902 0:24:12.451 0 0
00017.M2TS 1:12:37.353 0:24:12.451 0 0
00018.M2TS 1:36:49.804 0:24:12.451 0 0
00019.M2TS 2:01:02.255 0:24:12.451 0 0
00020.M2TS 2:25:14.706 0:24:12.451 0 0
00021.M2TS 2:49:27.157 0:24:12.451 0 0
00022.M2TS 3:13:39.608 0:24:12.451 0 0
00023.M2TS 3:37:52.059 0:24:12.451 0 0
00024.M2TS 4:02:04.510 0:00:10.010 0 0
00025.M2TS 4:02:14.520 0:00:00.500 0 0

Reportar Error Visitas: 68