Paste MC

Mega Colecciones

Dragon Ball Z 6 Temporada (1993) 1080p BD50 NFO

DISC INFO:

Disc Title: DRAGON BALL BD50
Disc Size: 1,178,297,422,769 bytes
Protection: AACS
BD-Java: No
BDInfo: 0.7.1

PLAYLIST REPORT:

Name: 00008.MPLS
Length: 4:02:22.986 (h:m:s.ms)
Size: 0 bytes
Total Bitrate: 0.00 Mbps

VIDEO:

Codec Bitrate Description
----- ------- -----------
MPEG-4 AVC Video 0 kbps 1080p / 23.976 fps / 16:9 / High Profile 4.1

AUDIO:

Codec Language Bitrate Description
----- -------- ------- -----------
Dolby TrueHD Audio English 0 kbps 5.1 / 48 kHz / 16-bit (AC3 Embedded: 5.1 / 48 kHz / 384 kbps / DN -7dB)
Dolby TrueHD Audio English 0 kbps 2.0 / 48 kHz / 16-bit (AC3 Embedded: 2.0 / 48 kHz / 192 kbps / DN -7dB)
Dolby TrueHD Audio Japanese 0 kbps 1.0 / 48 kHz / 16-bit (AC3 Embedded: 1.0 / 48 kHz / 96 kbps / DN -7dB)

SUBTITLES:

Codec Language Bitrate Description
----- -------- ------- -----------
Presentation Graphics English 0.000 kbps
Presentation Graphics English 0.000 kbps

FILES:

Name Time In Length Size Total Bitrate
---- ------- ------ ---- -------------
00014.M2TS 0:00:00.000 0:24:13.243 0 0
00015.M2TS 0:24:13.243 0:24:13.243 0 0
00016.M2TS 0:48:26.486 0:24:13.243 0 0
00017.M2TS 1:12:39.730 0:24:13.243 0 0
00018.M2TS 1:36:52.973 0:24:13.243 0 0
00019.M2TS 2:01:06.217 0:24:13.243 0 0
00020.M2TS 2:25:19.460 0:24:13.243 0 0
00021.M2TS 2:49:32.704 0:24:13.243 0 0
00022.M2TS 3:13:45.947 0:24:13.243 0 0
00023.M2TS 3:37:59.191 0:24:13.243 0 0
00024.M2TS 4:02:12.434 0:00:10.051 0 0
00025.M2TS 4:02:22.486 0:00:00.500 0 0

Reportar Error Visitas: 52