Paste MC

Mega Colecciones

Home Again (2017) 1080p 60 FPS NFO

General
Unique ID : 161123382908107648235002213025340452303 (0x79373C1B1730839884B6BA44F617EDCF)
Complete name : K:\RJGA0103-12-023-1080P60FPS\Home Again (2017) 1080p 60 FPS.mkv
Format : Matroska
Format version : Version 4 / Version 2
File size : 5.09 GiB
Duration : 1h 37mn
Overall bit rate : 7 495 Kbps
Movie name : Home Again (2017) - www.MegaColecciones.com
Encoded date : UTC 2017-12-26T13:43:57Z
Writing application : HandBrake 1.0.3 2017022500
Writing library : Lavf57.7.2 / Lavf57.7.2

Video
ID : 1
Format : AVC
Format/Info : Advanced Video Codec
Format profile : High@L4
Format settings, CABAC : No
Format settings, ReFrames : 4 frames
Codec ID : V_MPEG4/ISO/AVC
Duration : 1h 37mn
Bit rate : 7 000 Kbps
Width : 1 920 pixels
Height : 1 036 pixels
Display aspect ratio : 1.85:1
Frame rate mode : Constant
Frame rate : 60.000 fps
Color space : YUV
Chroma subsampling : 4:2:0
Bit depth : 8 bits
Scan type : Progressive
Bits/(Pixel*Frame) : 0.059
Stream size : 4.56 GiB (89%)
Writing library : x264 core 148 r2708 86b7198
Encoding settings : cabac=0 / ref=4 / deblock=1:-1:-1 / analyse=0x3:0x113 / me=umh / subme=8 / psy=1 / psy_rd=1.00:0.15 / mixed_ref=1 / me_range=16 / chroma_me=1 / trellis=1 / 8x8dct=1 / cqm=0 / deadzone=21,11 / fast_pskip=1 / chroma_qp_offset=-3 / threads=12 / lookahead_threads=2 / sliced_threads=0 / nr=0 / decimate=1 / interlaced=0 / bluray_compat=0 / constrained_intra=0 / bframes=3 / b_pyramid=2 / b_adapt=2 / b_bias=0 / direct=3 / weightb=1 / open_gop=0 / weightp=2 / keyint=240 / keyint_min=24 / scenecut=40 / intra_refresh=0 / rc_lookahead=50 / rc=abr / mbtree=1 / bitrate=7000 / ratetol=1.0 / qcomp=0.60 / qpmin=0 / qpmax=69 / qpstep=4 / vbv_maxrate=25000 / vbv_bufsize=31250 / nal_hrd=none / filler=0 / ip_ratio=1.40 / aq=1:1.00
Default : Yes
Forced : No
Color range : Limited
Color primaries : BT.709
Transfer characteristics : BT.709
Matrix coefficients : BT.709

Audio #1
ID : 2
Format : AC-3
Format/Info : Audio Coding 3
Mode extension : CM (complete main)
Format settings, Endianness : Big
Codec ID : A_AC3
Duration : 1h 37mn
Bit rate mode : Constant
Bit rate : 320 Kbps
Channel(s) : 6 channels
Channel positions : Front: L C R, Side: L R, LFE
Sampling rate : 48.0 KHz
Frame rate : 31.250 fps (1536 spf)
Compression mode : Lossy
Delay relative to video : -5ms
Stream size : 223 MiB (4%)
Title : www.MegaColecciones.com
Language : Latin
Default : Yes
Forced : No

Audio #2
ID : 3
Format : AC-3
Format/Info : Audio Coding 3
Mode extension : CM (complete main)
Format settings, Endianness : Big
Codec ID : A_AC3
Duration : 1h 37mn
Bit rate mode : Constant
Bit rate : 320 Kbps
Channel(s) : 6 channels
Channel positions : Front: L C R, Side: L R, LFE
Sampling rate : 48.0 KHz
Frame rate : 31.250 fps (1536 spf)
Compression mode : Lossy
Delay relative to video : -5ms
Stream size : 223 MiB (4%)
Title : www.MegaColecciones.com
Language : English
Default : No
Forced : No

Text #1
ID : 4
Format : ASS
Codec ID : S_TEXT/ASS
Codec ID/Info : Advanced Sub Station Alpha
Compression mode : Lossless
Language : Spanish
Default : No
Forced : No

Text #2
ID : 5
Format : ASS
Codec ID : S_TEXT/ASS
Codec ID/Info : Advanced Sub Station Alpha
Compression mode : Lossless
Language : Spanish
Default : No
Forced : No

Menu
00:00:00.000 : :00:00:00.000
00:06:00.150 : :00:06:00.110
00:11:00.317 : :00:11:00.285
00:16:54.250 : :00:16:54.222
00:20:11.250 : :00:20:11.210
00:25:08.167 : :00:25:08.132
00:29:37.317 : :00:29:37.275
00:35:04.383 : :00:35:04.352
00:40:23.117 : :00:40:23.087
00:46:32.950 : :00:46:32.915
00:51:47.383 : :00:51:47.354
00:54:48.200 : :00:54:48.160
00:59:20.167 : :00:59:20.140
01:03:16.250 : :01:03:16.209
01:09:23.450 : :01:09:23.284
01:15:03.150 : :01:15:03.124
01:17:19.800 : :01:17:19.760
01:21:08.817 : :01:21:08.697
01:27:51.333 : :01:27:51.308
01:32:42.250 : :01:32:42.098


Reportar Error Visitas: 62