Paste MC

Mega Colecciones

Dark Skies (2013) 1080p sin franjas NFO

General
Unique ID : 263420669803315814146130517111931922614 (0xC62CF9C08F3B9D84E53258B09897E8B6)
Complete name : P:\RJGA0103-11-062-1080P\Dark Skies (2013) 1080p sin franjas.mkv
Format : Matroska
Format version : Version 4 / Version 2
File size : 2.88 GiB
Duration : 1h 37mn
Overall bit rate : 4 249 Kbps
Movie name : Dark Skies (2013) - www.MegaColecciones.com
Encoded date : UTC 2017-10-19T07:56:12Z
Writing application : HandBrake 1.0.3 2017022500
Writing library : Lavf57.7.2

Video
ID : 1
Format : AVC
Format/Info : Advanced Video Codec
Format profile : Baseline@L4.0
Format settings, CABAC : No
Format settings, ReFrames : 1 frame
Codec ID : V_MPEG4/ISO/AVC
Duration : 1h 37mn
Bit rate : 3 500 Kbps
Width : 1 916 pixels
Height : 800 pixels
Display aspect ratio : 2.40:1
Frame rate mode : Constant
Frame rate : 23.976 fps
Color space : YUV
Chroma subsampling : 4:2:0
Bit depth : 8 bits
Scan type : Progressive
Bits/(Pixel*Frame) : 0.095
Stream size : 2.39 GiB (83%)
Writing library : x264 core 148 r2708 86b7198
Encoding settings : cabac=0 / ref=1 / deblock=0:-1:-1 / analyse=0:0 / me=dia / subme=0 / psy=1 / psy_rd=1.00:0.15 / mixed_ref=0 / me_range=16 / chroma_me=1 / trellis=0 / 8x8dct=0 / cqm=0 / deadzone=21,11 / fast_pskip=1 / chroma_qp_offset=0 / threads=12 / lookahead_threads=2 / sliced_threads=0 / nr=0 / decimate=1 / interlaced=0 / bluray_compat=0 / constrained_intra=0 / bframes=0 / weightp=0 / keyint=240 / keyint_min=24 / scenecut=0 / intra_refresh=0 / rc_lookahead=0 / rc=abr / mbtree=0 / bitrate=3500 / ratetol=1.0 / qcomp=0.60 / qpmin=0 / qpmax=69 / qpstep=4 / vbv_maxrate=20000 / vbv_bufsize=25000 / nal_hrd=none / filler=0 / ip_ratio=1.40 / aq=0
Default : Yes
Forced : No
Color primaries : BT.709
Transfer characteristics : BT.709
Matrix coefficients : BT.709

Audio #1
ID : 2
Format : AC-3
Format/Info : Audio Coding 3
Mode extension : CM (complete main)
Format settings, Endianness : Big
Codec ID : A_AC3
Duration : 1h 37mn
Bit rate mode : Constant
Bit rate : 320 Kbps
Channel count : 6 channels
Channel positions : Front: L C R, Side: L R, LFE
Sampling rate : 48.0 KHz
Bit depth : 16 bits
Compression mode : Lossy
Delay relative to video : -5ms
Stream size : 222 MiB (8%)
Title : Latino - www.MegaColecciones.com
Language : Latin
Default : Yes
Forced : No

Audio #2
ID : 3
Format : AC-3
Format/Info : Audio Coding 3
Mode extension : CM (complete main)
Format settings, Endianness : Big
Codec ID : A_AC3
Duration : 1h 37mn
Bit rate mode : Constant
Bit rate : 320 Kbps
Channel count : 6 channels
Channel positions : Front: L C R, Side: L R, LFE
Sampling rate : 48.0 KHz
Bit depth : 16 bits
Compression mode : Lossy
Delay relative to video : -5ms
Stream size : 222 MiB (8%)
Title : Ingles - www.MegaColecciones.com
Language : English
Default : No
Forced : No

Text #1
ID : 4
Format : ASS
Codec ID : S_TEXT/ASS
Codec ID/Info : Advanced Sub Station Alpha
Compression mode : Lossless
Language : English
Default : No
Forced : No

Text #2
ID : 5
Format : ASS
Codec ID : S_TEXT/ASS
Codec ID/Info : Advanced Sub Station Alpha
Compression mode : Lossless
Language : English
Default : No
Forced : No

Text #3
ID : 6
Format : ASS
Codec ID : S_TEXT/ASS
Codec ID/Info : Advanced Sub Station Alpha
Compression mode : Lossless
Language : English
Default : No
Forced : No

Menu
00:00:00.000 : :00:00:00.000
00:04:21.470 : :00:04:21.470
00:08:22.210 : :00:08:22.210
00:14:43.716 : :00:14:43.716
00:18:52.214 : :00:18:52.131
00:24:34.056 : :00:24:34.014
00:29:52.958 : :00:29:52.916
00:36:28.144 : :00:36:28.144
00:40:32.430 : :00:40:32.430
00:45:40.404 : :00:45:40.404
00:52:14.548 : :00:52:14.548
00:59:41.328 : :00:59:41.244
01:05:08.196 : :01:05:08.196
01:11:59.607 : :01:11:59.482
01:17:07.248 : :01:17:07.248
01:22:48.213 : :01:22:48.172
01:29:07.092 : :01:29:07.050
01:33:03.578 : :01:33:03.244


Reportar Error Visitas: 51