Paste MC

Mega Colecciones

LEGO Batman La Película (2017) FULL HD 3D SBS NFO

General
Unique ID : 250372800399607420970094427658605798096 (0xBC5C0C1F748C32DD992DB95C5E93A2D0)
Complete name : P:\RJGA0103-10-050-3D\LEGO Batman La Película (2017) Latino HD 3D SBS 1080P.mkv
Format : Matroska
Format version : Version 4 / Version 2
File size : 4.27 GiB
Duration : 1h 44mn
Overall bit rate : 5 844 Kbps
Movie name : www.MegaColecciones.com
Encoded date : UTC 2017-06-01T23:27:10Z
Writing application : mkvmerge v15.0.0 ('Duel with the Devil') 32-bit
Writing library : Lavf57.7.2
DURATION : 01:44:17.040000000
NUMBER_OF_FRAMES : 4414
NUMBER_OF_BYTES : 274394
_STATISTICS_WRITING_APP : mkvmerge v15.0.0 ('Duel with the Devil') 32-bit
_STATISTICS_WRITING_DATE_UTC : 2017-10-02 23:55:10
_STATISTICS_TAGS : BPS DURATION NUMBER_OF_FRAMES NUMBER_OF_BYTES

Video
ID : 1
Format : AVC
Format/Info : Advanced Video Codec
Format profile : High@L4.1
Format settings, CABAC : Yes
Format settings, ReFrames : 4 frames
Format settings, GOP : M=4, N=24
Codec ID : V_MPEG4/ISO/AVC
Duration : 1h 44mn
Bit rate : 4 500 Kbps
Width : 1 920 pixels
Height : 800 pixels
Display aspect ratio : 2.40:1
Frame rate mode : Constant
Frame rate : 23.976 fps
Color space : YUV
Chroma subsampling : 4:2:0
Bit depth : 8 bits
Scan type : Progressive
Bits/(Pixel*Frame) : 0.122
Stream size : 3.20 GiB (75%)
Title : www.MegaColecciones.com
Writing library : x264 core 148 r2708 86b7198
Encoding settings : cabac=1 / ref=2 / deblock=1:0:0 / analyse=0x3:0x113 / me=hex / subme=6 / psy=1 / psy_rd=1.00:0.00 / mixed_ref=1 / me_range=16 / chroma_me=1 / trellis=1 / 8x8dct=1 / cqm=0 / deadzone=21,11 / fast_pskip=1 / chroma_qp_offset=-2 / threads=25 / lookahead_threads=4 / sliced_threads=0 / nr=0 / decimate=1 / interlaced=0 / bluray_compat=0 / constrained_intra=0 / bframes=3 / b_pyramid=2 / b_adapt=1 / b_bias=0 / direct=1 / weightb=1 / open_gop=0 / weightp=1 / keyint=240 / keyint_min=24 / scenecut=40 / intra_refresh=0 / rc_lookahead=30 / rc=2pass / mbtree=1 / bitrate=4500 / ratetol=1.0 / qcomp=0.60 / qpmin=0 / qpmax=69 / qpstep=4 / cplxblur=20.0 / qblur=0.5 / vbv_maxrate=62500 / vbv_bufsize=78125 / nal_hrd=none / filler=0 / ip_ratio=1.40 / aq=1:1.00
Default : Yes
Forced : No
Color primaries : BT.709
Transfer characteristics : BT.709
Matrix coefficients : BT.709
DURATION : 01:44:30.181000000
NUMBER_OF_FRAMES : 150334
NUMBER_OF_BYTES : 3524938744
_STATISTICS_WRITING_APP : mkvmerge v15.0.0 ('Duel with the Devil') 32-bit
_STATISTICS_WRITING_DATE_UTC : 2017-10-02 23:55:10
_STATISTICS_TAGS : BPS DURATION NUMBER_OF_FRAMES NUMBER_OF_BYTES

Audio #1
ID : 2
Format : AC-3
Format/Info : Audio Coding 3
Mode extension : CM (complete main)
Format settings, Endianness : Big
Codec ID : A_AC3
Duration : 1h 44mn
Bit rate mode : Constant
Bit rate : 448 Kbps
Channel count : 6 channels
Channel positions : Front: L C R, Side: L R, LFE
Sampling rate : 48.0 KHz
Bit depth : 16 bits
Compression mode : Lossy
Delay relative to video : -5ms
Stream size : 335 MiB (8%)
Title : Audio Latino (Modismos Mexicanos)
Language : Latin
Default : Yes
Forced : No
DURATION : 01:44:30.080000000
NUMBER_OF_FRAMES : 195940
NUMBER_OF_BYTES : 351124480
_STATISTICS_WRITING_APP : mkvmerge v15.0.0 ('Duel with the Devil') 32-bit
_STATISTICS_WRITING_DATE_UTC : 2017-10-02 23:55:10
_STATISTICS_TAGS : BPS DURATION NUMBER_OF_FRAMES NUMBER_OF_BYTES

Audio #2
ID : 3
Format : AC-3
Format/Info : Audio Coding 3
Mode extension : CM (complete main)
Format settings, Endianness : Big
Codec ID : A_AC3
Duration : 1h 44mn
Bit rate mode : Constant
Bit rate : 448 Kbps
Channel count : 6 channels
Channel positions : Front: L C R, Side: L R, LFE
Sampling rate : 48.0 KHz
Bit depth : 16 bits
Compression mode : Lossy
Delay relative to video : -5ms
Stream size : 335 MiB (8%)
Title : Audio Latino (Neutro)
Language : Latin
Default : No
Forced : No

Audio #3
ID : 4
Format : AC-3
Format/Info : Audio Coding 3
Mode extension : CM (complete main)
Format settings, Endianness : Big
Codec ID : A_AC3
Duration : 1h 44mn
Bit rate mode : Constant
Bit rate : 448 Kbps
Channel count : 6 channels
Channel positions : Front: L C R, Side: L R, LFE
Sampling rate : 48.0 KHz
Bit depth : 16 bits
Compression mode : Lossy
Delay relative to video : -5ms
Stream size : 335 MiB (8%)
Title : Audio Ingles
Language : English
Default : No
Forced : No

Text #1
ID : 5
Format : ASS
Codec ID : S_TEXT/ASS
Codec ID/Info : Advanced Sub Station Alpha
Compression mode : Lossless
Title : Forzados
Language : Spanish
Default : Yes
Forced : No

Text #2
ID : 6
Format : ASS
Codec ID : S_TEXT/ASS
Codec ID/Info : Advanced Sub Station Alpha
Compression mode : Lossless
Title : Completos
Language : Spanish
Default : No
Forced : No

Menu
00:00:00.000 : :1
00:12:56.526 : :2
00:22:57.793 : :3
00:32:32.701 : :4
00:40:58.539 : :5
00:50:12.593 : :6
01:00:26.456 : :7
01:10:59.505 : :8
01:19:30.975 : :9
01:27:18.400 : :10
01:36:27.156 : :11


Reportar Error Visitas: 74