Paste MC

Mega Colecciones

La Vigilante del Futuro, Ghost in the Shell (2017) FULL HD 3D SBS NFO

General
Unique ID : 228039776233431622680152782908195708993 (0xAB8EDD04E4F954ECBC37C18F9C21A041)
Complete name : P:\RJGA0103-10-049-3D\La Vigilante del Futuro, Ghost in the Shell (2017) Latino Full 3D SBS 1080P.mkv
Format : Matroska
Format version : Version 4 / Version 2
File size : 4.02 GiB
Duration : 1h 46mn
Overall bit rate : 5 388 Kbps
Movie name : www.MegaColecciones.com
Encoded date : UTC 2017-07-24T17:09:05Z
Writing application : mkvmerge v15.0.0 ('Duel with the Devil') 32-bit
Writing library : Lavf57.7.2
DURATION : 01:37:50.170000000
NUMBER_OF_FRAMES : 1810
NUMBER_OF_BYTES : 110720
_STATISTICS_WRITING_APP : mkvmerge v15.0.0 ('Duel with the Devil') 32-bit
_STATISTICS_WRITING_DATE_UTC : 2017-10-02 23:54:14
_STATISTICS_TAGS : BPS DURATION NUMBER_OF_FRAMES NUMBER_OF_BYTES

Video
ID : 1
Format : AVC
Format/Info : Advanced Video Codec
Format profile : High@L4.1
Format settings, CABAC : Yes
Format settings, ReFrames : 4 frames
Codec ID : V_MPEG4/ISO/AVC
Duration : 1h 46mn
Bit rate : 4 300 Kbps
Width : 1 920 pixels
Height : 1 080 pixels
Display aspect ratio : 16:9
Frame rate mode : Constant
Frame rate : 23.976 fps
Color space : YUV
Chroma subsampling : 4:2:0
Bit depth : 8 bits
Scan type : Progressive
Bits/(Pixel*Frame) : 0.086
Stream size : 3.13 GiB (78%)
Title : www.MegaColecciones.com
Writing library : x264 core 148 r2708 86b7198
Encoding settings : cabac=1 / ref=2 / deblock=1:0:0 / analyse=0x3:0x113 / me=hex / subme=6 / psy=1 / psy_rd=1.00:0.00 / mixed_ref=1 / me_range=16 / chroma_me=1 / trellis=1 / 8x8dct=1 / cqm=0 / deadzone=21,11 / fast_pskip=1 / chroma_qp_offset=-2 / threads=34 / lookahead_threads=5 / sliced_threads=0 / nr=0 / decimate=1 / interlaced=0 / bluray_compat=0 / constrained_intra=0 / bframes=3 / b_pyramid=2 / b_adapt=1 / b_bias=0 / direct=1 / weightb=1 / open_gop=0 / weightp=1 / keyint=240 / keyint_min=24 / scenecut=40 / intra_refresh=0 / rc_lookahead=30 / rc=2pass / mbtree=1 / bitrate=4300 / ratetol=1.0 / qcomp=0.60 / qpmin=0 / qpmax=69 / qpstep=4 / cplxblur=20.0 / qblur=0.5 / vbv_maxrate=62500 / vbv_bufsize=78125 / nal_hrd=none / filler=0 / ip_ratio=1.40 / aq=1:1.00
Default : Yes
Forced : No
Color primaries : BT.709
Transfer characteristics : BT.709
Matrix coefficients : BT.709
DURATION : 01:46:56.285000000
NUMBER_OF_FRAMES : 153837
NUMBER_OF_BYTES : 3447181553
_STATISTICS_WRITING_APP : mkvmerge v15.0.0 ('Duel with the Devil') 32-bit
_STATISTICS_WRITING_DATE_UTC : 2017-10-02 23:54:14
_STATISTICS_TAGS : BPS DURATION NUMBER_OF_FRAMES NUMBER_OF_BYTES

Audio #1
ID : 2
Format : AC-3
Format/Info : Audio Coding 3
Mode extension : CM (complete main)
Format settings, Endianness : Big
Codec ID : A_AC3
Duration : 1h 46mn
Bit rate mode : Constant
Bit rate : 640 Kbps
Channel count : 6 channels
Channel positions : Front: L C R, Side: L R, LFE
Sampling rate : 48.0 KHz
Bit depth : 16 bits
Compression mode : Lossy
Delay relative to video : -5ms
Stream size : 490 MiB (12%)
Title : Audio Latino
Language : Latin
Default : Yes
Forced : No

Audio #2
ID : 3
Format : AC-3
Format/Info : Audio Coding 3
Mode extension : CM (complete main)
Format settings, Endianness : Big
Codec ID : A_AC3
Duration : 1h 46mn
Bit rate mode : Constant
Bit rate : 448 Kbps
Channel count : 6 channels
Channel positions : Front: L C R, Side: L R, LFE
Sampling rate : 48.0 KHz
Bit depth : 16 bits
Compression mode : Lossy
Delay relative to video : -5ms
Stream size : 343 MiB (8%)
Title : Audio Ingles
Language : English
Default : No
Forced : No
DURATION : 01:46:55.904000000
NUMBER_OF_FRAMES : 200497
NUMBER_OF_BYTES : 359290624
_STATISTICS_WRITING_APP : mkvmerge v15.0.0 ('Duel with the Devil') 32-bit
_STATISTICS_WRITING_DATE_UTC : 2017-10-02 23:54:14
_STATISTICS_TAGS : BPS DURATION NUMBER_OF_FRAMES NUMBER_OF_BYTES

Text #1
ID : 4
Format : ASS
Codec ID : S_TEXT/ASS
Codec ID/Info : Advanced Sub Station Alpha
Compression mode : Lossless
Title : Forzados
Language : Spanish
Default : Yes
Forced : No

Text #2
ID : 5
Format : ASS
Codec ID : S_TEXT/ASS
Codec ID/Info : Advanced Sub Station Alpha
Compression mode : Lossless
Title : Completos
Language : Spanish
Default : No
Forced : No

Menu
00:00:00.000 : :(01)00:00:00:000
00:08:09.322 : :(02)00:08:09:322
00:14:39.962 : :(03)00:14:39:962
00:21:26.494 : :(04)00:21:26:493
00:28:02.681 : :(05)00:28:02:681
00:34:13.218 : :(06)00:34:13:217
00:39:27.615 : :(07)00:39:27:615
00:43:57.802 : :(08)00:43:57:801
00:51:49.815 : :(09)00:51:49:815
00:55:19.066 : :(10)00:55:19:065
01:01:06.872 : :(11)01:01:06:871
01:07:49.732 : :(12)01:07:49:732
01:14:36.973 : :(13)01:14:36:972
01:20:31.744 : :(14)01:20:31:743
01:27:46.178 : :(15)01:27:46:177
01:33:41.407 : :(16)01:33:41:407
01:38:00.124 : :(17)01:38:00:082


Reportar Error Visitas: 69