Paste MC

Mega Colecciones

Piratas del Caribe: Navegando aguas misteriosas (2011)FULL HD 3D SBS NFO

General
Unique ID : 179598337927602774706785631418087121574 (0x871D61B6F0AC2048BA28B5926B0022A6)
Complete name : P:\RJGA0103-10-042-3D\Piratas del Caribe Navegando Aguas Misteriosas (2011) Latino HD 3D SBS 1080P.mkv
Format : Matroska
Format version : Version 4 / Version 2
File size : 4.42 GiB
Duration : 2h 16mn
Overall bit rate : 4 643 Kbps
Movie name : www.MegaColecciones.com
Encoded date : UTC 2017-06-12T17:53:34Z
Writing application : mkvmerge v15.0.0 ('Duel with the Devil') 32-bit
Writing library : Lavf57.7.2
DURATION : 02:08:33.730000000
NUMBER_OF_FRAMES : 2532
NUMBER_OF_BYTES : 163870
_STATISTICS_WRITING_APP : mkvmerge v15.0.0 ('Duel with the Devil') 32-bit
_STATISTICS_WRITING_DATE_UTC : 2017-10-02 23:58:27
_STATISTICS_TAGS : BPS DURATION NUMBER_OF_FRAMES NUMBER_OF_BYTES

Video
ID : 1
Format : AVC
Format/Info : Advanced Video Codec
Format profile : High@L4.1
Format settings, CABAC : Yes
Format settings, ReFrames : 4 frames
Codec ID : V_MPEG4/ISO/AVC
Duration : 2h 16mn
Bit rate : 3 750 Kbps
Width : 1 920 pixels
Height : 1 080 pixels
Display aspect ratio : 16:9
Frame rate mode : Constant
Frame rate : 23.976 fps
Color space : YUV
Chroma subsampling : 4:2:0
Bit depth : 8 bits
Scan type : Progressive
Bits/(Pixel*Frame) : 0.075
Stream size : 3.48 GiB (79%)
Title : www.MegaColecciones.com
Writing library : x264 core 148 r2708 86b7198
Encoding settings : cabac=1 / ref=2 / deblock=1:0:0 / analyse=0x3:0x113 / me=hex / subme=6 / psy=1 / psy_rd=1.00:0.00 / mixed_ref=1 / me_range=16 / chroma_me=1 / trellis=1 / 8x8dct=1 / cqm=0 / deadzone=21,11 / fast_pskip=1 / chroma_qp_offset=-2 / threads=34 / lookahead_threads=5 / sliced_threads=0 / nr=0 / decimate=1 / interlaced=0 / bluray_compat=0 / constrained_intra=0 / bframes=3 / b_pyramid=2 / b_adapt=1 / b_bias=0 / direct=1 / weightb=1 / open_gop=0 / weightp=1 / keyint=240 / keyint_min=24 / scenecut=40 / intra_refresh=0 / rc_lookahead=30 / rc=2pass / mbtree=1 / bitrate=3750 / ratetol=1.0 / qcomp=0.60 / qpmin=0 / qpmax=69 / qpstep=4 / cplxblur=20.0 / qblur=0.5 / vbv_maxrate=62500 / vbv_bufsize=78125 / nal_hrd=none / filler=0 / ip_ratio=1.40 / aq=1:1.00
Default : Yes
Forced : No
Color primaries : BT.709
Transfer characteristics : BT.709
Matrix coefficients : BT.709
DURATION : 02:16:14.959000000
NUMBER_OF_FRAMES : 196003
NUMBER_OF_BYTES : 3830532471
_STATISTICS_WRITING_APP : mkvmerge v15.0.0 ('Duel with the Devil') 32-bit
_STATISTICS_WRITING_DATE_UTC : 2017-10-02 23:58:27
_STATISTICS_TAGS : BPS DURATION NUMBER_OF_FRAMES NUMBER_OF_BYTES

Audio #1
ID : 2
Format : AC-3
Format/Info : Audio Coding 3
Mode extension : CM (complete main)
Format settings, Endianness : Big
Codec ID : A_AC3
Duration : 2h 16mn
Bit rate mode : Constant
Bit rate : 448 Kbps
Channel count : 6 channels
Channel positions : Front: L C R, Side: L R, LFE
Sampling rate : 48.0 KHz
Bit depth : 16 bits
Compression mode : Lossy
Delay relative to video : -5ms
Stream size : 437 MiB (10%)
Title : Audio Latino
Language : Latin
Default : Yes
Forced : No
DURATION : 02:16:23.456000000
NUMBER_OF_FRAMES : 255733
NUMBER_OF_BYTES : 458273536
_STATISTICS_WRITING_APP : mkvmerge v15.0.0 ('Duel with the Devil') 32-bit
_STATISTICS_WRITING_DATE_UTC : 2017-10-02 23:58:27
_STATISTICS_TAGS : BPS DURATION NUMBER_OF_FRAMES NUMBER_OF_BYTES

Audio #2
ID : 3
Format : AC-3
Format/Info : Audio Coding 3
Mode extension : CM (complete main)
Format settings, Endianness : Big
Codec ID : A_AC3
Duration : 2h 16mn
Bit rate mode : Constant
Bit rate : 448 Kbps
Channel count : 6 channels
Channel positions : Front: L C R, Side: L R, LFE
Sampling rate : 48.0 KHz
Bit depth : 16 bits
Compression mode : Lossy
Delay relative to video : -5ms
Stream size : 437 MiB (10%)
Title : Audio Ingles
Language : English
Default : No
Forced : No

Text #1
ID : 4
Format : ASS
Codec ID : S_TEXT/ASS
Codec ID/Info : Advanced Sub Station Alpha
Compression mode : Lossless
Title : Forzados
Language : Spanish
Default : Yes
Forced : No

Text #2
ID : 5
Format : ASS
Codec ID : S_TEXT/ASS
Codec ID/Info : Advanced Sub Station Alpha
Compression mode : Lossless
Title : Completos
Language : Spanish
Default : No
Forced : No

Menu
00:00:00.000 : :(01)00:00:00:000
00:03:34.172 : :(02)00:03:34:172
00:08:46.776 : :(03)00:08:46:776
00:15:56.080 : :(04)00:15:56:080
00:18:34.155 : :(05)00:18:34:154
00:21:15.316 : :(06)00:21:15:315
00:30:05.512 : :(07)00:30:05:512
00:36:56.756 : :(08)00:36:56:756
00:42:05.356 : :(09)00:42:05:356
00:48:20.022 : :(10)00:48:20:022
00:53:26.078 : :(11)00:53:26:077
00:55:42.965 : :(12)00:55:42:964
00:57:52.844 : :(13)00:57:52:844
01:00:47.477 : :(14)01:00:47:477
01:08:22.223 : :(15)01:08:22:223
01:11:41.339 : :(16)01:11:41:338
01:13:03.170 : :(17)01:13:03:170
01:14:16.744 : :(18)01:14:16:743
01:23:19.995 : :(19)01:23:19:995
01:26:49.621 : :(20)01:26:49:621
01:30:16.494 : :(21)01:30:16:494
01:35:43.738 : :(22)01:35:43:738
01:40:57.927 : :(23)01:40:57:926
01:43:07.556 : :(24)01:43:07:556
01:44:51.660 : :(25)01:44:51:660
01:48:53.610 : :(26)01:48:53:610
01:57:41.471 : :(27)01:57:41:471
02:02:21.376 : :(28)02:02:21:375
02:05:51.461 : :(29)02:05:51:460
02:07:26.806 : :(30)02:07:26:805


Reportar Error Visitas: 58