Paste MC

Mega Colecciones

Resident Evil: Capítulo final (2016) FULL HD 3D SBS NFO

General
Unique ID : 226384595101213566229774107415002608042 (0xAA501649EA06FC64BD8ADD17E06DF1AA)
Complete name : P:\RJGA0103-10-041-3D\Resident Evil Capítulo Final (2016) Latino 3D SBS 1080P.mkv
Format : Matroska
Format version : Version 4 / Version 2
File size : 4.16 GiB
Duration : 1h 46mn
Overall bit rate : 5 586 Kbps
Movie name : www.MegaColecciones.com
Encoded date : UTC 2017-04-26T01:40:42Z
Writing application : mkvmerge v15.0.0 ('Duel with the Devil') 32-bit
Writing library : Lavf57.7.2
DURATION : 01:46:31.540000000
NUMBER_OF_FRAMES : 1502
NUMBER_OF_BYTES : 97404
_STATISTICS_WRITING_APP : mkvmerge v15.0.0 ('Duel with the Devil') 32-bit
_STATISTICS_WRITING_DATE_UTC : 2017-10-03 03:28:09
_STATISTICS_TAGS : BPS DURATION NUMBER_OF_FRAMES NUMBER_OF_BYTES

Video
ID : 1
Format : AVC
Format/Info : Advanced Video Codec
Format profile : High@L4.1
Format settings, CABAC : Yes
Format settings, ReFrames : 4 frames
Codec ID : V_MPEG4/ISO/AVC
Duration : 1h 46mn
Bit rate : 4 500 Kbps
Width : 1 920 pixels
Height : 800 pixels
Display aspect ratio : 2.40:1
Frame rate mode : Constant
Frame rate : 23.976 fps
Color space : YUV
Chroma subsampling : 4:2:0
Bit depth : 8 bits
Scan type : Progressive
Bits/(Pixel*Frame) : 0.122
Stream size : 3.27 GiB (79%)
Title : www.MegaColecciones.com
Writing library : x264 core 148 r2708 86b7198
Encoding settings : cabac=1 / ref=2 / deblock=1:0:0 / analyse=0x3:0x113 / me=hex / subme=6 / psy=1 / psy_rd=1.00:0.00 / mixed_ref=1 / me_range=16 / chroma_me=1 / trellis=1 / 8x8dct=1 / cqm=0 / deadzone=21,11 / fast_pskip=1 / chroma_qp_offset=-2 / threads=25 / lookahead_threads=4 / sliced_threads=0 / nr=0 / decimate=1 / interlaced=0 / bluray_compat=0 / constrained_intra=0 / bframes=3 / b_pyramid=2 / b_adapt=1 / b_bias=0 / direct=1 / weightb=1 / open_gop=0 / weightp=1 / keyint=240 / keyint_min=24 / scenecut=40 / intra_refresh=0 / rc_lookahead=30 / rc=2pass / mbtree=1 / bitrate=4500 / ratetol=1.0 / qcomp=0.60 / qpmin=0 / qpmax=69 / qpstep=4 / cplxblur=20.0 / qblur=0.5 / vbv_maxrate=62500 / vbv_bufsize=78125 / nal_hrd=none / filler=0 / ip_ratio=1.40 / aq=1:1.00
Default : Yes
Forced : No
Color primaries : BT.709
Transfer characteristics : BT.709
Matrix coefficients : BT.709
DURATION : 01:46:30.176000000
NUMBER_OF_FRAMES : 153211
NUMBER_OF_BYTES : 3593134558
_STATISTICS_WRITING_APP : mkvmerge v15.0.0 ('Duel with the Devil') 32-bit
_STATISTICS_WRITING_DATE_UTC : 2017-10-03 03:28:09
_STATISTICS_TAGS : BPS DURATION NUMBER_OF_FRAMES NUMBER_OF_BYTES

Audio #1
ID : 2
Format : AC-3
Format/Info : Audio Coding 3
Mode extension : CM (complete main)
Format settings, Endianness : Big
Codec ID : A_AC3
Duration : 1h 46mn
Bit rate mode : Constant
Bit rate : 640 Kbps
Channel count : 6 channels
Channel positions : Front: L C R, Side: L R, LFE
Sampling rate : 48.0 KHz
Bit depth : 16 bits
Compression mode : Lossy
Delay relative to video : -5ms
Stream size : 488 MiB (11%)
Title : Audio Latino
Language : Latin
Default : Yes
Forced : Yes
DURATION : 01:46:33.344000000
NUMBER_OF_FRAMES : 199792
NUMBER_OF_BYTES : 358027264
_STATISTICS_WRITING_APP : mkvmerge v15.0.0 ('Duel with the Devil') 32-bit
_STATISTICS_WRITING_DATE_UTC : 2017-10-03 03:28:09
_STATISTICS_TAGS : BPS DURATION NUMBER_OF_FRAMES NUMBER_OF_BYTES

Audio #2
ID : 3
Format : AC-3
Format/Info : Audio Coding 3
Mode extension : CM (complete main)
Format settings, Endianness : Big
Codec ID : A_AC3
Duration : 1h 46mn
Bit rate mode : Constant
Bit rate : 448 Kbps
Channel count : 6 channels
Channel positions : Front: L C R, Side: L R, LFE
Sampling rate : 48.0 KHz
Bit depth : 16 bits
Compression mode : Lossy
Delay relative to video : -5ms
Stream size : 341 MiB (8%)
Title : Audio Ingles
Language : English
Default : No
Forced : No

Text #1
ID : 4
Format : ASS
Codec ID : S_TEXT/ASS
Codec ID/Info : Advanced Sub Station Alpha
Compression mode : Lossless
Title : Forzados
Language : Spanish
Default : Yes
Forced : No

Text #2
ID : 5
Format : ASS
Codec ID : S_TEXT/ASS
Codec ID/Info : Advanced Sub Station Alpha
Compression mode : Lossless
Title : Completos
Language : Spanish
Default : No
Forced : No

Menu
00:00:00.000 : :00:00:00.000
00:05:39.714 : :00:05:39.673
00:11:18.178 : :00:11:18.177
00:17:00.102 : :00:17:00.102
00:22:36.313 : :00:22:36.146
00:27:22.099 : :00:27:21.932
00:33:36.056 : :00:33:35.889
00:40:43.983 : :00:40:43.816
00:46:29.495 : :00:46:29.328
00:53:12.064 : :00:53:11.980
01:03:12.038 : :01:03:11.871
01:10:41.237 : :01:10:41.070
01:15:30.943 : :01:15:30.776
01:22:51.175 : :01:22:51.008
01:28:26.259 : :01:28:26.092
01:35:00.820 : :01:35:00.653


Reportar Error Visitas: 50