Paste MC

Mega Colecciones

La Gran Muralla (2016) 3D NFO

General
Unique ID : 239651190251092617797439172529771629617 (0xB44B23EE0F70F73D8F98D7A34E19CC31)
Complete name : P:\RJGA0103-10-039-3D\La Gran Muralla (2016) Latino HD 3D SBS 1080P.mkv
Format : Matroska
Format version : Version 4 / Version 2
File size : 4.02 GiB
Duration : 1h 43mn
Overall bit rate : 5 589 Kbps
Movie name : www.MegaColecciones.com
Encoded date : UTC 2017-05-14T02:50:51Z
Writing application : mkvmerge v15.0.0 ('Duel with the Devil') 32-bit
Writing library : Lavf57.7.2
DURATION : 01:34:44.240000000
NUMBER_OF_FRAMES : 1722
NUMBER_OF_BYTES : 98868
_STATISTICS_WRITING_APP : mkvmerge v15.0.0 ('Duel with the Devil') 32-bit
_STATISTICS_WRITING_DATE_UTC : 2017-10-02 23:53:32
_STATISTICS_TAGS : BPS DURATION NUMBER_OF_FRAMES NUMBER_OF_BYTES

Video
ID : 1
Format : AVC
Format/Info : Advanced Video Codec
Format profile : High@L4.1
Format settings, CABAC : Yes
Format settings, ReFrames : 4 frames
Codec ID : V_MPEG4/ISO/AVC
Duration : 1h 43mn
Bit rate : 4 500 Kbps
Width : 1 920 pixels
Height : 808 pixels
Display aspect ratio : 16:9
Frame rate mode : Constant
Frame rate : 23.976 fps
Color space : YUV
Chroma subsampling : 4:2:0
Bit depth : 8 bits
Scan type : Progressive
Bits/(Pixel*Frame) : 0.121
Stream size : 3.16 GiB (79%)
Title : www.MegaColecciones.com
Writing library : x264 core 148 r2708 86b7198
Encoding settings : cabac=1 / ref=2 / deblock=1:0:0 / analyse=0x3:0x113 / me=hex / subme=6 / psy=1 / psy_rd=1.00:0.00 / mixed_ref=1 / me_range=16 / chroma_me=1 / trellis=1 / 8x8dct=1 / cqm=0 / deadzone=21,11 / fast_pskip=1 / chroma_qp_offset=-2 / threads=25 / lookahead_threads=4 / sliced_threads=0 / nr=0 / decimate=1 / interlaced=0 / bluray_compat=0 / constrained_intra=0 / bframes=3 / b_pyramid=2 / b_adapt=1 / b_bias=0 / direct=1 / weightb=1 / open_gop=0 / weightp=1 / keyint=240 / keyint_min=24 / scenecut=40 / intra_refresh=0 / rc_lookahead=30 / rc=2pass / mbtree=1 / bitrate=4500 / ratetol=1.0 / qcomp=0.60 / qpmin=0 / qpmax=69 / qpstep=4 / cplxblur=20.0 / qblur=0.5 / vbv_maxrate=62500 / vbv_bufsize=78125 / nal_hrd=none / filler=0 / ip_ratio=1.40 / aq=1:1.00
Default : Yes
Forced : No
Color primaries : BT.709
Transfer characteristics : BT.709
Matrix coefficients : BT.709
DURATION : 01:43:02.218000000
NUMBER_OF_FRAMES : 148225
NUMBER_OF_BYTES : 3477192016
_STATISTICS_WRITING_APP : mkvmerge v15.0.0 ('Duel with the Devil') 32-bit
_STATISTICS_WRITING_DATE_UTC : 2017-10-02 23:53:32
_STATISTICS_TAGS : BPS DURATION NUMBER_OF_FRAMES NUMBER_OF_BYTES

Audio #1
ID : 2
Format : AC-3
Format/Info : Audio Coding 3
Mode extension : CM (complete main)
Format settings, Endianness : Big
Codec ID : A_AC3
Duration : 1h 43mn
Bit rate mode : Constant
Bit rate : 640 Kbps
Channel count : 6 channels
Channel positions : Front: L C R, Side: L R, LFE
Sampling rate : 48.0 KHz
Bit depth : 16 bits
Compression mode : Lossy
Stream size : 472 MiB (11%)
Title : Audio Latino
Language : Latin
Default : Yes
Forced : No
DURATION : 01:43:03.360000000
NUMBER_OF_FRAMES : 193230
NUMBER_OF_BYTES : 494668800
_STATISTICS_WRITING_APP : mkvmerge v15.0.0 ('Duel with the Devil') 32-bit
_STATISTICS_WRITING_DATE_UTC : 2017-10-02 23:53:32
_STATISTICS_TAGS : BPS DURATION NUMBER_OF_FRAMES NUMBER_OF_BYTES

Audio #2
ID : 3
Format : AC-3
Format/Info : Audio Coding 3
Mode extension : CM (complete main)
Format settings, Endianness : Big
Codec ID : A_AC3
Duration : 1h 43mn
Bit rate mode : Constant
Bit rate : 448 Kbps
Channel count : 6 channels
Channel positions : Front: L C R, Side: L R, LFE
Sampling rate : 48.0 KHz
Bit depth : 16 bits
Compression mode : Lossy
Delay relative to video : -5ms
Stream size : 330 MiB (8%)
Title : Audio Ingles
Language : English
Default : No
Forced : No
DURATION : 01:43:02.752000000
NUMBER_OF_FRAMES : 193211
NUMBER_OF_BYTES : 346234112
_STATISTICS_WRITING_APP : mkvmerge v15.0.0 ('Duel with the Devil') 32-bit
_STATISTICS_WRITING_DATE_UTC : 2017-10-02 23:53:32
_STATISTICS_TAGS : BPS DURATION NUMBER_OF_FRAMES NUMBER_OF_BYTES

Text #1
ID : 4
Format : ASS
Codec ID : S_TEXT/ASS
Codec ID/Info : Advanced Sub Station Alpha
Compression mode : Lossless
Title : Forzados
Language : Spanish
Default : Yes
Forced : No

Text #2
ID : 5
Format : ASS
Codec ID : S_TEXT/ASS
Codec ID/Info : Advanced Sub Station Alpha
Compression mode : Lossless
Title : Completos
Language : Spanish
Default : No
Forced : No

Menu
00:00:00.000 : :(01)00:00:00:000
00:05:58.358 : :(02)00:05:58:358
00:11:47.540 : :(03)00:11:47:540
00:16:53.679 : :(04)00:16:53:679
00:20:13.254 : :(05)00:20:13:253
00:25:11.010 : :(06)00:25:11:009
00:28:55.317 : :(07)00:28:55:316
00:33:57.744 : :(08)00:33:57:744
00:37:54.147 : :(09)00:37:54:146
00:42:42.935 : :(10)00:42:42:935
00:46:18.943 : :(11)00:46:18:942
00:50:27.691 : :(12)00:50:27:691
00:56:46.069 : :(13)00:56:46:069
01:01:58.048 : :(14)01:01:58:047
01:07:12.820 : :(15)01:07:12:820
01:12:08.533 : :(16)01:12:08:532
01:18:20.863 : :(17)01:18:20:862
01:23:25.083 : :(18)01:23:25:083
01:27:26.158 : :(19)01:27:26:157
01:31:14.386 : :(20)01:31:14:385


Reportar Error Visitas: 61