Paste MC

Mega Colecciones

Un jefe en pañales (2017) FULL HD 3D SBS NFO

General
Unique ID : 200859141901801003427071798003695715831 (0x971C10480A87431B95572DD5C28985F7)
Complete name : P:\RJGA0103-10-034-3D\Jefe en Pañales (2017) Latino Full 3D SBS 1080P.mkv
Format : Matroska
Format version : Version 4 / Version 2
File size : 3.47 GiB
Duration : 1h 37mn
Overall bit rate : 5 098 Kbps
Movie name : www.MegaColecciones.com
Encoded date : UTC 2017-07-13T19:10:48Z
Writing application : mkvmerge v15.0.0 ('Duel with the Devil') 32-bit
Writing library : Lavf57.7.2
DURATION : 01:37:18.750000000
NUMBER_OF_FRAMES : 3154
NUMBER_OF_BYTES : 190250
_STATISTICS_WRITING_APP : mkvmerge v15.0.0 ('Duel with the Devil') 32-bit
_STATISTICS_WRITING_DATE_UTC : 2017-10-02 23:51:46
_STATISTICS_TAGS : BPS DURATION NUMBER_OF_FRAMES NUMBER_OF_BYTES

Video
ID : 1
Format : AVC
Format/Info : Advanced Video Codec
Format profile : High@L4.1
Format settings, CABAC : Yes
Format settings, ReFrames : 4 frames
Codec ID : V_MPEG4/ISO/AVC
Duration : 1h 37mn
Bit rate : 4 200 Kbps
Width : 1 920 pixels
Height : 1 080 pixels
Display aspect ratio : 16:9
Frame rate mode : Constant
Frame rate : 23.976 fps
Color space : YUV
Chroma subsampling : 4:2:0
Bit depth : 8 bits
Scan type : Progressive
Bits/(Pixel*Frame) : 0.084
Stream size : 2.79 GiB (80%)
Title : www.MegaColecciones.com
Writing library : x264 core 148 r2708 86b7198
Encoding settings : cabac=1 / ref=2 / deblock=1:0:0 / analyse=0x3:0x113 / me=hex / subme=6 / psy=1 / psy_rd=1.00:0.00 / mixed_ref=1 / me_range=16 / chroma_me=1 / trellis=1 / 8x8dct=1 / cqm=0 / deadzone=21,11 / fast_pskip=1 / chroma_qp_offset=-2 / threads=34 / lookahead_threads=5 / sliced_threads=0 / nr=0 / decimate=1 / interlaced=0 / bluray_compat=0 / constrained_intra=0 / bframes=3 / b_pyramid=2 / b_adapt=1 / b_bias=0 / direct=1 / weightb=1 / open_gop=0 / weightp=1 / keyint=240 / keyint_min=24 / scenecut=40 / intra_refresh=0 / rc_lookahead=30 / rc=2pass / mbtree=1 / bitrate=4200 / ratetol=1.0 / qcomp=0.60 / qpmin=0 / qpmax=69 / qpstep=4 / cplxblur=20.0 / qblur=0.5 / vbv_maxrate=62500 / vbv_bufsize=78125 / nal_hrd=none / filler=0 / ip_ratio=1.40 / aq=1:1.00
Default : Yes
Forced : No
Color primaries : BT.709
Transfer characteristics : BT.709
Matrix coefficients : BT.709
DURATION : 01:37:30.178000000
NUMBER_OF_FRAMES : 140264
NUMBER_OF_BYTES : 3071302461
_STATISTICS_WRITING_APP : mkvmerge v15.0.0 ('Duel with the Devil') 32-bit
_STATISTICS_WRITING_DATE_UTC : 2017-10-02 23:51:46
_STATISTICS_TAGS : BPS DURATION NUMBER_OF_FRAMES NUMBER_OF_BYTES

Audio #1
ID : 2
Format : AC-3
Format/Info : Audio Coding 3
Mode extension : CM (complete main)
Format settings, Endianness : Big
Codec ID : A_AC3
Duration : 1h 37mn
Bit rate mode : Constant
Bit rate : 448 Kbps
Channel count : 6 channels
Channel positions : Front: L C R, Side: L R, LFE
Sampling rate : 48.0 KHz
Bit depth : 16 bits
Compression mode : Lossy
Stream size : 312 MiB (9%)
Title : Audio Latino
Language : Latin
Default : Yes
Forced : No
DURATION : 01:37:30.848000000
NUMBER_OF_FRAMES : 182839
NUMBER_OF_BYTES : 327647488
_STATISTICS_WRITING_APP : mkvmerge v15.0.0 ('Duel with the Devil') 32-bit
_STATISTICS_WRITING_DATE_UTC : 2017-10-02 23:51:46
_STATISTICS_TAGS : BPS DURATION NUMBER_OF_FRAMES NUMBER_OF_BYTES

Audio #2
ID : 3
Format : AC-3
Format/Info : Audio Coding 3
Mode extension : CM (complete main)
Format settings, Endianness : Big
Codec ID : A_AC3
Duration : 1h 37mn
Bit rate mode : Constant
Bit rate : 448 Kbps
Channel count : 6 channels
Channel positions : Front: L C R, Side: L R, LFE
Sampling rate : 48.0 KHz
Bit depth : 16 bits
Compression mode : Lossy
Delay relative to video : -5ms
Stream size : 312 MiB (9%)
Title : Audio Ingles
Language : English
Default : No
Forced : No
DURATION : 01:37:30.816000000
NUMBER_OF_FRAMES : 182838
NUMBER_OF_BYTES : 327645696
_STATISTICS_WRITING_APP : mkvmerge v15.0.0 ('Duel with the Devil') 32-bit
_STATISTICS_WRITING_DATE_UTC : 2017-10-02 23:51:46
_STATISTICS_TAGS : BPS DURATION NUMBER_OF_FRAMES NUMBER_OF_BYTES

Text #1
ID : 4
Format : ASS
Codec ID : S_TEXT/ASS
Codec ID/Info : Advanced Sub Station Alpha
Compression mode : Lossless
Title : Forzados
Language : Spanish
Default : Yes
Forced : No

Text #2
ID : 5
Format : ASS
Codec ID : S_TEXT/ASS
Codec ID/Info : Advanced Sub Station Alpha
Compression mode : Lossless
Title : Completos
Language : Spanish
Default : No
Forced : No

Menu
00:00:00.000 : :(01)00:00:00:000
00:03:45.892 : :(02)00:03:45:892
00:08:58.288 : :(03)00:08:58:287
00:11:45.914 : :(04)00:11:45:913
00:14:59.565 : :(05)00:14:59:565
00:19:38.219 : :(06)00:19:38:218
00:22:52.788 : :(07)00:22:52:788
00:28:27.247 : :(08)00:28:27:247
00:30:26.116 : :(09)00:30:26:115
00:33:45.482 : :(10)00:33:45:481
00:36:57.257 : :(11)00:36:57:256
00:39:18.356 : :(12)00:39:18:356
00:42:35.344 : :(13)00:42:35:344
00:46:20.653 : :(14)00:46:20:611
00:51:37.720 : :(15)00:51:37:719
00:53:25.285 : :(16)00:53:25:285
00:56:28.719 : :(17)00:56:28:718
00:59:35.405 : :(18)00:59:35:405
01:04:03.173 : :(19)01:04:03:172
01:08:15.758 : :(20)01:08:15:758
01:11:29.911 : :(21)01:11:29:910
01:16:25.247 : :(22)01:16:25:247
01:23:10.110 : :(23)01:23:10:110
01:27:37.002 : :(24)01:27:36:960


Reportar Error Visitas: 66