Paste MC

Mega Colecciones

Guardianes De La Galaxia Vol 2 (2017) IMAX Edition x5d FULL HD 3D SBS NFO

General
Unique ID : 218046981134305858233309828504041431237 (0xA40A522EB16D96C89380372303F220C5)
Complete name : P:\RJGA0103-10-033-3D\Guardianes De La Galaxia Vol. 2 (2017) [IMAX Edition] Latino Full 3D SBS 1080P.mkv
Format : Matroska
Format version : Version 4 / Version 2
File size : 4.98 GiB
Duration : 2h 15mn
Overall bit rate : 5 250 Kbps
Movie name : www.MegaColecciones.com
Encoded date : UTC 2017-08-23T17:33:36Z
Writing application : mkvmerge v15.0.0 ('Duel with the Devil') 32-bit
Writing library : Lavf57.7.2
DURATION : 02:15:34.380000000
NUMBER_OF_FRAMES : 3210
NUMBER_OF_BYTES : 200560
_STATISTICS_WRITING_APP : mkvmerge v15.0.0 ('Duel with the Devil') 32-bit
_STATISTICS_WRITING_DATE_UTC : 2017-10-02 23:50:41
_STATISTICS_TAGS : BPS DURATION NUMBER_OF_FRAMES NUMBER_OF_BYTES

Video
ID : 1
Format : AVC
Format/Info : Advanced Video Codec
Format profile : High@L4.1
Format settings, CABAC : Yes
Format settings, ReFrames : 4 frames
Format settings, GOP : M=1, N=3
Codec ID : V_MPEG4/ISO/AVC
Duration : 2h 15mn
Bit rate : 4 200 Kbps
Width : 1 920 pixels
Height : 1 080 pixels
Display aspect ratio : 16:9
Frame rate mode : Constant
Frame rate : 23.976 fps
Color space : YUV
Chroma subsampling : 4:2:0
Bit depth : 8 bits
Scan type : Progressive
Bits/(Pixel*Frame) : 0.084
Stream size : 3.85 GiB (77%)
Title : www.MegaColecciones.com
Writing library : x264 core 148 r2708 86b7198
Encoding settings : cabac=1 / ref=2 / deblock=1:0:0 / analyse=0x3:0x113 / me=hex / subme=6 / psy=1 / psy_rd=1.00:0.00 / mixed_ref=1 / me_range=16 / chroma_me=1 / trellis=1 / 8x8dct=1 / cqm=0 / deadzone=21,11 / fast_pskip=1 / chroma_qp_offset=-2 / threads=34 / lookahead_threads=5 / sliced_threads=0 / nr=0 / decimate=1 / interlaced=0 / bluray_compat=0 / constrained_intra=0 / bframes=3 / b_pyramid=2 / b_adapt=1 / b_bias=0 / direct=1 / weightb=1 / open_gop=0 / weightp=1 / keyint=240 / keyint_min=24 / scenecut=40 / intra_refresh=0 / rc_lookahead=30 / rc=abr / mbtree=1 / bitrate=4200 / ratetol=1.0 / qcomp=0.60 / qpmin=0 / qpmax=69 / qpstep=4 / vbv_maxrate=62500 / vbv_bufsize=78125 / nal_hrd=none / filler=0 / ip_ratio=1.40 / aq=1:1.00
Default : Yes
Forced : No
Color primaries : BT.709
Transfer characteristics : BT.709
Matrix coefficients : BT.709
DURATION : 02:15:45.137000000
NUMBER_OF_FRAMES : 195288
NUMBER_OF_BYTES : 4235091365
_STATISTICS_WRITING_APP : mkvmerge v15.0.0 ('Duel with the Devil') 32-bit
_STATISTICS_WRITING_DATE_UTC : 2017-10-02 23:50:41
_STATISTICS_TAGS : BPS DURATION NUMBER_OF_FRAMES NUMBER_OF_BYTES

Audio #1
ID : 2
Format : AC-3
Format/Info : Audio Coding 3
Mode extension : CM (complete main)
Format settings, Endianness : Big
Codec ID : A_AC3
Duration : 2h 15mn
Bit rate mode : Constant
Bit rate : 640 Kbps
Channel count : 6 channels
Channel positions : Front: L C R, Side: L R, LFE
Sampling rate : 48.0 KHz
Bit depth : 16 bits
Compression mode : Lossy
Delay relative to video : -5ms
Stream size : 622 MiB (12%)
Title : Audio Latino
Language : Latin
Default : Yes
Forced : No
DURATION : 02:15:45.920000000
NUMBER_OF_FRAMES : 254560
NUMBER_OF_BYTES : 456171520
_STATISTICS_WRITING_APP : mkvmerge v15.0.0 ('Duel with the Devil') 32-bit
_STATISTICS_WRITING_DATE_UTC : 2017-10-02 23:50:41
_STATISTICS_TAGS : BPS DURATION NUMBER_OF_FRAMES NUMBER_OF_BYTES

Audio #2
ID : 3
Format : AC-3
Format/Info : Audio Coding 3
Mode extension : CM (complete main)
Format settings, Endianness : Big
Codec ID : A_AC3
Duration : 2h 15mn
Bit rate mode : Constant
Bit rate : 448 Kbps
Channel count : 6 channels
Channel positions : Front: L C R, Side: L R, LFE
Sampling rate : 48.0 KHz
Bit depth : 16 bits
Compression mode : Lossy
Delay relative to video : -5ms
Stream size : 435 MiB (9%)
Title : Audio Ingles
Language : English
Default : No
Forced : No

Text #1
ID : 4
Format : ASS
Codec ID : S_TEXT/ASS
Codec ID/Info : Advanced Sub Station Alpha
Compression mode : Lossless
Title : Forzados
Language : Spanish
Default : Yes
Forced : No

Text #2
ID : 5
Format : ASS
Codec ID : S_TEXT/ASS
Codec ID/Info : Advanced Sub Station Alpha
Compression mode : Lossless
Title : Completos
Language : Spanish
Default : No
Forced : No

Menu
00:00:00.000 : :(01)00:00:00:000
00:09:56.179 : :(02)00:09:56:178
00:15:10.118 : :(03)00:15:10:117
00:22:14.083 : :(04)00:22:14:082
00:32:33.702 : :(05)00:32:33:701
00:36:52.127 : :(06)00:36:52:126
00:42:29.172 : :(07)00:42:29:171
00:48:03.464 : :(08)00:48:03:463
00:53:18.904 : :(09)00:53:18:904
00:58:45.939 : :(10)00:58:45:939
01:05:52.240 : :(11)01:05:52:239
01:11:12.435 : :(12)01:11:12:434
01:18:43.594 : :(13)01:18:43:593
01:23:55.322 : :(14)01:23:55:321
01:30:24.753 : :(15)01:30:24:752
01:39:36.179 : :(16)01:39:36:178
01:47:06.211 : :(17)01:47:06:211
01:54:21.605 : :(18)01:54:21:604
01:58:53.710 : :(19)01:58:53:709
02:07:13.459 : :(20)02:07:13:459


Reportar Error Visitas: 68