Paste MC

Mega Colecciones

Sing: ¡Ven y canta! (2016) FULL HD 3D SBS NFO

General
Unique ID : 179568888970224581885773098738938634843 (0x8717B5C4D760FC0CA8BE47FADC91625B)
Complete name : P:\RJGA0103-10-031-3D\Sing (2016) Latino FULL HD 3D SBS 1080P.mkv
Format : Matroska
Format version : Version 4 / Version 2
File size : 4.71 GiB
Duration : 1 h 47 min
Overall bit rate : 6 248 kb/s
Movie name : www.MegaColecciones.com
Encoded date : UTC 2017-10-03 03:29:23
Writing application : mkvmerge v15.0.0 ('Duel with the Devil') 32-bit
Writing library : libebml v1.3.5 + libmatroska v1.4.5

Video
ID : 1
Format : AVC
Format/Info : Advanced Video Codec
Format profile : High@L4.1
Format settings : CABAC / 4 Ref Frames
Format settings, CABAC : Yes
Format settings, RefFrames : 4 frames
Codec ID : V_MPEG4/ISO/AVC
Duration : 1 h 47 min
Bit rate : 5 158 kb/s
Width : 1 920 pixels
Height : 1 040 pixels
Display aspect ratio : 1.85:1
Frame rate mode : Constant
Frame rate : 23.976 FPS
Color space : YUV
Chroma subsampling : 4:2:0
Bit depth : 8 bits
Scan type : Progressive
Bits/(Pixel*Frame) : 0.108
Stream size : 3.89 GiB (83%)
Title : www.MegaColecciones.com
Writing library : x264 core 148 r2744 b97ae06
Encoding settings : cabac=1 / ref=4 / deblock=1:0:0 / analyse=0x3:0x133 / me=umh / subme=7 / psy=1 / psy_rd=1.00:0.00 / mixed_ref=1 / me_range=16 / chroma_me=1 / trellis=1 / 8x8dct=1 / cqm=0 / deadzone=21,11 / fast_pskip=0 / chroma_qp_offset=-2 / threads=24 / lookahead_threads=4 / sliced_threads=0 / nr=0 / decimate=1 / interlaced=0 / bluray_compat=0 / constrained_intra=0 / bframes=3 / b_pyramid=2 / b_adapt=1 / b_bias=0 / direct=1 / weightb=1 / open_gop=0 / weightp=2 / keyint=250 / keyint_min=23 / scenecut=40 / intra_refresh=0 / rc_lookahead=40 / rc=2pass / mbtree=1 / bitrate=5158 / ratetol=1.0 / qcomp=0.60 / qpmin=0 / qpmax=69 / qpstep=4 / cplxblur=20.0 / qblur=0.5 / ip_ratio=1.40 / aq=1:1.00
Language : English
Default : Yes
Forced : No

Audio #1
ID : 2
Format : AC-3
Format/Info : Audio Coding 3
Format settings, Endianness : Big
Codec ID : A_AC3
Duration : 1 h 47 min
Bit rate mode : Constant
Bit rate : 448 kb/s
Channel(s) : 6 channels
Channel positions : Front: L C R, Side: L R, LFE
Sampling rate : 48.0 kHz
Frame rate : 31.250 FPS (1536 SPF)
Bit depth : 16 bits
Compression mode : Lossy
Stream size : 346 MiB (7%)
Title : Audio Latino
Language : Latin
Service kind : Complete Main
Default : Yes
Forced : No

Audio #2
ID : 3
Format : AC-3
Format/Info : Audio Coding 3
Format settings, Endianness : Big
Codec ID : A_AC3
Duration : 1 h 47 min
Bit rate mode : Constant
Bit rate : 640 kb/s
Channel(s) : 6 channels
Channel positions : Front: L C R, Side: L R, LFE
Sampling rate : 48.0 kHz
Frame rate : 31.250 FPS (1536 SPF)
Bit depth : 16 bits
Compression mode : Lossy
Stream size : 494 MiB (10%)
Title : Audio Ingles
Language : English
Service kind : Complete Main
Default : No
Forced : No

Text #1
ID : 4
Format : ASS
Codec ID : S_TEXT/ASS
Codec ID/Info : Advanced Sub Station Alpha
Duration : 1 h 39 min
Bit rate : 4 b/s
Count of elements : 58
Compression mode : Lossless
Stream size : 3.12 KiB (0%)
Title : Forzados
Language : Spanish
Default : Yes
Forced : No

Text #2
ID : 5
Format : ASS
Codec ID : S_TEXT/ASS
Codec ID/Info : Advanced Sub Station Alpha
Duration : 1 h 40 min
Bit rate : 238 b/s
Count of elements : 2932
Compression mode : Lossless
Stream size : 175 KiB (0%)
Title : Completos
Language : Spanish
Default : No
Forced : No

Menu
00:00:00.000 : en:00:00:00.000
00:04:29.352 : en:00:04:29.352
00:10:36.469 : en:00:10:36.469
00:14:04.677 : en:00:14:04.677
00:18:32.653 : en:00:18:32.653
00:25:14.722 : en:00:25:14.722
00:30:04.052 : en:00:30:04.052
00:35:11.776 : en:00:35:11.776
00:40:07.405 : en:00:40:07.405
00:44:36.132 : en:00:44:36.132
00:50:26.649 : en:00:50:26.649
00:55:36.208 : en:00:55:36.208
01:04:40.710 : en:01:04:40.710
01:14:03.981 : en:01:14:03.981
01:19:17.962 : en:01:19:17.962
01:23:59.159 : en:01:23:59.159
01:26:56.461 : en:01:26:56.461
01:30:38.266 : en:01:30:38.266
01:34:47.181 : en:01:34:47.181
01:40:16.010 : en:01:40:16.010


Reportar Error Visitas: 58