Paste MC

Mega Colecciones

Animales fantásticos y dónde encontrarlos (2016) FULL HD 3D SBS NFO

General
Unique ID : 197232359930147220269515859957739741099 (0x9461921FE4DA688897311A4E3780DFAB)
Complete name : P:\RJGA0103-10-023-3D\Fantastic Beasts and Where to Find Them (2016) Dual Full 3D SBS.mkv
Format : Matroska
Format version : Version 4 / Version 2
File size : 4.83 GiB
Duration : 2h 12mn
Overall bit rate : 5 201 Kbps
Movie name : www.MegaColecciones.com
Encoded date : UTC 2017-03-12T04:51:05Z
Writing application : mkvmerge v15.0.0 ('Duel with the Devil') 32-bit
Writing library : Lavf57.7.2
DURATION : 02:04:00.514000000
NUMBER_OF_FRAMES : 44
NUMBER_OF_BYTES : 558674
_STATISTICS_WRITING_APP : mkvmerge v15.0.0 ('Duel with the Devil') 32-bit
_STATISTICS_WRITING_DATE_UTC : 2017-10-03 03:36:38
_STATISTICS_TAGS : BPS DURATION NUMBER_OF_FRAMES NUMBER_OF_BYTES

Video
ID : 1
Format : AVC
Format/Info : Advanced Video Codec
Format profile : [email protected]
Format settings, CABAC : Yes
Format settings, ReFrames : 4 frames
Codec ID : V_MPEG4/ISO/AVC
Duration : 2h 12mn
Bit rate : 4 100 Kbps
Width : 1 920 pixels
Height : 1 080 pixels
Display aspect ratio : 16:9
Frame rate mode : Constant
Frame rate : 23.976 fps
Color space : YUV
Chroma subsampling : 4:2:0
Bit depth : 8 bits
Scan type : Progressive
Bits/(Pixel*Frame) : 0.082
Stream size : 3.72 GiB (77%)
Title : www.MegaColecciones.com
Writing library : x264 core 148 r2708 86b7198
Encoding settings : cabac=1 / ref=3 / deblock=1:-1:-1 / analyse=0x3:0x113 / me=hex / subme=7 / psy=1 / psy_rd=1.00:0.15 / mixed_ref=1 / me_range=16 / chroma_me=1 / trellis=1 / 8x8dct=1 / cqm=0 / deadzone=21,11 / fast_pskip=1 / chroma_qp_offset=-3 / threads=18 / lookahead_threads=3 / sliced_threads=0 / nr=0 / decimate=1 / interlaced=0 / bluray_compat=0 / constrained_intra=0 / bframes=3 / b_pyramid=2 / b_adapt=1 / b_bias=0 / direct=1 / weightb=1 / open_gop=0 / weightp=2 / keyint=240 / keyint_min=24 / scenecut=40 / intra_refresh=0 / rc_lookahead=40 / rc=2pass / mbtree=1 / bitrate=4100 / ratetol=1.0 / qcomp=0.60 / qpmin=0 / qpmax=69 / qpstep=4 / cplxblur=20.0 / qblur=0.5 / ip_ratio=1.40 / aq=1:1.00
Default : Yes
Forced : No
Color primaries : BT.709
Transfer characteristics : BT.709
Matrix coefficients : BT.709
DURATION : 02:12:51.797000000
NUMBER_OF_FRAMES : 191132
NUMBER_OF_BYTES : 4084835024
_STATISTICS_WRITING_APP : mkvmerge v15.0.0 ('Duel with the Devil') 32-bit
_STATISTICS_WRITING_DATE_UTC : 2017-10-03 03:36:38
_STATISTICS_TAGS : BPS DURATION NUMBER_OF_FRAMES NUMBER_OF_BYTES

Audio #1
ID : 2
Format : AC-3
Format/Info : Audio Coding 3
Mode extension : CM (complete main)
Format settings, Endianness : Big
Codec ID : A_AC3
Duration : 2h 12mn
Bit rate mode : Constant
Bit rate : 448 Kbps
Channel count : 6 channels
Channel positions : Front: L C R, Side: L R, LFE
Sampling rate : 48.0 KHz
Bit depth : 16 bits
Compression mode : Lossy
Stream size : 426 MiB (9%)
Title : Audio Latino
Language : Latin
Default : Yes
Forced : Yes
DURATION : 02:12:52.448000000
NUMBER_OF_FRAMES : 249139
NUMBER_OF_BYTES : 446457088
_STATISTICS_WRITING_APP : mkvmerge v15.0.0 ('Duel with the Devil') 32-bit
_STATISTICS_WRITING_DATE_UTC : 2017-10-03 03:36:38
_STATISTICS_TAGS : BPS DURATION NUMBER_OF_FRAMES NUMBER_OF_BYTES

Audio #2
ID : 3
Format : AC-3
Format/Info : Audio Coding 3
Mode extension : CM (complete main)
Format settings, Endianness : Big
Codec ID : A_AC3
Duration : 2h 12mn
Bit rate mode : Constant
Bit rate : 640 Kbps
Channel count : 6 channels
Channel positions : Front: L C R, Side: L R, LFE
Sampling rate : 48.0 KHz
Bit depth : 16 bits
Compression mode : Lossy
Delay relative to video : -5ms
Stream size : 608 MiB (12%)
Title : Audio Ingles
Language : English
Default : No
Forced : No
DURATION : 02:12:52.384000000
NUMBER_OF_FRAMES : 249137
NUMBER_OF_BYTES : 637790720
_STATISTICS_WRITING_APP : mkvmerge v15.0.0 ('Duel with the Devil') 32-bit
_STATISTICS_WRITING_DATE_UTC : 2017-10-03 03:36:38
_STATISTICS_TAGS : BPS DURATION NUMBER_OF_FRAMES NUMBER_OF_BYTES

Text #1
ID : 4
Format : VobSub
Muxing mode : zlib
Codec ID : S_VOBSUB
Codec ID/Info : The same subtitle format used on DVDs
Title : Forzados SUB
Language : Spanish
Default : Yes
Forced : Yes
DURATION : 02:11:27.838000000
NUMBER_OF_FRAMES : 49
NUMBER_OF_BYTES : 813420
_STATISTICS_WRITING_APP : mkvmerge v15.0.0 ('Duel with the Devil') 32-bit
_STATISTICS_WRITING_DATE_UTC : 2017-10-03 03:36:38
_STATISTICS_TAGS : BPS DURATION NUMBER_OF_FRAMES NUMBER_OF_BYTES

Text #2
ID : 5
Format : PGS
Muxing mode : zlib
Codec ID : S_HDMV/PGS
Codec ID/Info : The same subtitle format used on BDs/HD-DVDs
Title : Latino PGS
Language : Spanish
Default : No
Forced : No
DURATION : 02:11:35.429000000
NUMBER_OF_FRAMES : 3195
NUMBER_OF_BYTES : 37615511
_STATISTICS_WRITING_APP : mkvmerge v15.0.0 ('Duel with the Devil') 32-bit
_STATISTICS_WRITING_DATE_UTC : 2017-10-03 03:36:38
_STATISTICS_TAGS : BPS DURATION NUMBER_OF_FRAMES NUMBER_OF_BYTES

Text #3
ID : 6
Format : PGS
Muxing mode : zlib
Codec ID : S_HDMV/PGS
Codec ID/Info : The same subtitle format used on BDs/HD-DVDs
Title : Ingles PGS
Language : English
Default : No
Forced : No


Reportar Error Visitas: 17