Paste MC

Mega Colecciones

Moana (2016) FULL HD 3D SBS NFO

General
Unique ID : 191242366420139922856716295898692118266 (0x8FDFF0A4A71DE9689C6B18ED313CE6FA)
Complete name : P:\RJGA0103-10-019-3D\Moana (2016) Latino 3D SBS 1080P.mkv
Format : Matroska
Format version : Version 4 / Version 2
File size : 4.11 GiB
Duration : 1h 47mn
Overall bit rate : 5 486 Kbps
Movie name : www.MegaColecciones.com
Encoded date : UTC 2017-02-18T20:17:41Z
Writing application : mkvmerge v15.0.0 ('Duel with the Devil') 32-bit
Writing library : Lavf55.12.0
DURATION : 01:45:33.728000000
NUMBER_OF_FRAMES : 1220
NUMBER_OF_BYTES : 34809
_STATISTICS_WRITING_APP : mkvmerge v15.0.0 ('Duel with the Devil') 32-bit
_STATISTICS_WRITING_DATE_UTC : 2017-10-03 03:26:01
_STATISTICS_TAGS : BPS DURATION NUMBER_OF_FRAMES NUMBER_OF_BYTES

Video
ID : 1
Format : AVC
Format/Info : Advanced Video Codec
Format profile : [email protected]
Format settings, CABAC : Yes
Format settings, ReFrames : 4 frames
Codec ID : V_MPEG4/ISO/AVC
Duration : 1h 47mn
Bit rate : 4 300 Kbps
Width : 1 920 pixels
Height : 808 pixels
Display aspect ratio : 2.40:1
Frame rate mode : Constant
Frame rate : 23.976 fps
Color space : YUV
Chroma subsampling : 4:2:0
Bit depth : 8 bits
Scan type : Progressive
Bits/(Pixel*Frame) : 0.116
Stream size : 3.07 GiB (75%)
Title : www.MegaColecciones.com
Writing library : x264 core 142 r2479 dd79a61
Encoding settings : cabac=1 / ref=1 / deblock=1:0:0 / analyse=0x3:0x113 / me=hex / subme=2 / psy=1 / psy_rd=1.00:0.00 / mixed_ref=0 / me_range=16 / chroma_me=1 / trellis=0 / 8x8dct=1 / cqm=0 / deadzone=21,11 / fast_pskip=1 / chroma_qp_offset=0 / threads=36 / lookahead_threads=6 / sliced_threads=0 / nr=0 / decimate=1 / interlaced=0 / bluray_compat=0 / constrained_intra=0 / bframes=3 / b_pyramid=2 / b_adapt=1 / b_bias=0 / direct=1 / weightb=1 / open_gop=0 / weightp=1 / keyint=240 / keyint_min=24 / scenecut=40 / intra_refresh=0 / rc_lookahead=10 / rc=abr / mbtree=1 / bitrate=4300 / ratetol=1.0 / qcomp=0.60 / qpmin=0 / qpmax=69 / qpstep=4 / vbv_maxrate=62500 / vbv_bufsize=78125 / nal_hrd=none / filler=0 / ip_ratio=1.40 / aq=1:1.00
Default : Yes
Forced : No
Color primaries : BT.709
Transfer characteristics : BT.709
Matrix coefficients : BT.709
DURATION : 01:47:09.585000000
NUMBER_OF_FRAMES : 154156
NUMBER_OF_BYTES : 3380659848
_STATISTICS_WRITING_APP : mkvmerge v15.0.0 ('Duel with the Devil') 32-bit
_STATISTICS_WRITING_DATE_UTC : 2017-10-03 03:26:01
_STATISTICS_TAGS : BPS DURATION NUMBER_OF_FRAMES NUMBER_OF_BYTES

Audio #1
ID : 2
Format : AC-3
Format/Info : Audio Coding 3
Mode extension : CM (complete main)
Format settings, Endianness : Big
Codec ID : A_AC3
Duration : 1h 47mn
Bit rate mode : Constant
Bit rate : 640 Kbps
Channel count : 6 channels
Channel positions : Front: L C R, Side: L R, LFE
Sampling rate : 48.0 KHz
Bit depth : 16 bits
Compression mode : Lossy
Delay relative to video : -83ms
Stream size : 491 MiB (12%)
Title : Audio Latino
Language : Latin
Default : Yes
Forced : No
DURATION : 01:47:12.800000000
NUMBER_OF_FRAMES : 201025
NUMBER_OF_BYTES : 514624000
_STATISTICS_WRITING_APP : mkvmerge v15.0.0 ('Duel with the Devil') 32-bit
_STATISTICS_WRITING_DATE_UTC : 2017-10-03 03:26:01
_STATISTICS_TAGS : BPS DURATION NUMBER_OF_FRAMES NUMBER_OF_BYTES

Audio #2
ID : 3
Format : AC-3
Format/Info : Audio Coding 3
Mode extension : CM (complete main)
Format settings, Endianness : Big
Codec ID : A_AC3
Duration : 1h 47mn
Bit rate mode : Constant
Bit rate : 640 Kbps
Channel count : 6 channels
Channel positions : Front: L C R, Side: L R, LFE
Sampling rate : 48.0 KHz
Bit depth : 16 bits
Compression mode : Lossy
Delay relative to video : -5ms
Stream size : 491 MiB (12%)
Title : Audio Ingles
Language : English
Default : No
Forced : No

Text
ID : 4
Format : UTF-8
Codec ID : S_TEXT/UTF8
Codec ID/Info : UTF-8 Plain Text
Title : Subtitulos Latino
Language : Spanish
Default : No
Forced : No

Menu
00:00:00.000 : :00:00:00.000
00:07:15.768 : :00:07:15.685
00:11:59.885 : :00:11:59.802
00:16:13.847 : :00:16:13.764
00:21:29.829 : :00:21:29.580
00:28:03.055 : :00:28:02.806
00:32:11.511 : :00:32:11.346
00:35:16.529 : :00:35:16.281
00:41:36.992 : :00:41:36.869
00:45:05.117 : :00:45:04.869
00:49:10.570 : :00:49:10.322
00:53:21.278 : :00:53:21.031
00:57:33.572 : :00:57:33.325
01:05:45.271 : :01:05:45.024
01:10:46.322 : :01:10:46.075
01:12:52.364 : :01:12:52.118
01:15:42.075 : :01:15:41.954
01:23:17.238 : :01:23:17.075
01:29:51.048 : :01:29:50.927
01:36:13.930 : :01:36:13.726


Reportar Error Visitas: 15