Paste MC

Mega Colecciones

Mujer Maravilla (2017) FULL HD 3D SBS NFO

General
Unique ID : 177655906589790762230417312315476072993 (0x85A74874A4FE96AEA2B454D52E70DA21)
Complete name : P:\RJGA0103-10-018-3D\Mujer Maravilla (2017) Latino 3D SBS 1080P.mkv
Format : Matroska
Format version : Version 4 / Version 2
File size : 4.31 GiB
Duration : 2h 21mn
Overall bit rate : 4 370 Kbps
Movie name : www.MegaColecciones.com
Encoded date : UTC 2017-10-02 23:57:12
Writing application : mkvmerge v15.0.0 ('Duel with the Devil') 32-bit
Writing library : libebml v1.3.5 + libmatroska v1.4.5
DURATION : 02:13:01.740000000
NUMBER_OF_FRAMES : 3174
NUMBER_OF_BYTES : 192448
_STATISTICS_WRITING_APP : mkvmerge v15.0.0 ('Duel with the Devil') 32-bit
_STATISTICS_WRITING_DATE_UTC : 2017-10-02 23:57:12
_STATISTICS_TAGS : BPS DURATION NUMBER_OF_FRAMES NUMBER_OF_BYTES

Video
ID : 1
Format : AVC
Format/Info : Advanced Video Codec
Format profile : [email protected]
Format settings, CABAC : Yes
Format settings, ReFrames : 5 frames
Codec ID : V_MPEG4/ISO/AVC
Duration : 2h 21mn
Bit rate : 3 500 Kbps
Width : 1 920 pixels
Height : 800 pixels
Display aspect ratio : 2.40:1
Frame rate mode : Constant
Frame rate : 23.976 fps
Color space : YUV
Chroma subsampling : 4:2:0
Bit depth : 8 bits
Scan type : Progressive
Bits/(Pixel*Frame) : 0.095
Stream size : 3.34 GiB (78%)
Title : www.MegaColecciones.com
Writing library : x264 core 148 r2708 86b7198
Encoding settings : cabac=1 / ref=5 / deblock=1:0:0 / analyse=0x3:0x113 / me=umh / subme=8 / psy=1 / psy_rd=1.00:0.00 / mixed_ref=1 / me_range=16 / chroma_me=1 / trellis=1 / 8x8dct=1 / cqm=0 / deadzone=21,11 / fast_pskip=1 / chroma_qp_offset=-2 / threads=25 / lookahead_threads=4 / sliced_threads=0 / nr=0 / decimate=1 / interlaced=0 / bluray_compat=0 / constrained_intra=0 / bframes=3 / b_pyramid=2 / b_adapt=2 / b_bias=0 / direct=3 / weightb=1 / open_gop=0 / weightp=2 / keyint=240 / keyint_min=24 / scenecut=40 / intra_refresh=0 / rc_lookahead=50 / rc=abr / mbtree=1 / bitrate=3500 / ratetol=1.0 / qcomp=0.60 / qpmin=0 / qpmax=69 / qpstep=4 / vbv_maxrate=62500 / vbv_bufsize=78125 / nal_hrd=none / filler=0 / ip_ratio=1.40 / aq=1:1.00
Default : Yes
Forced : No
Color primaries : BT.709
Transfer characteristics : BT.709
Matrix coefficients : BT.709
DURATION : 02:21:11.755000000
NUMBER_OF_FRAMES : 203119
NUMBER_OF_BYTES : 3678329132
_STATISTICS_WRITING_APP : mkvmerge v15.0.0 ('Duel with the Devil') 32-bit
_STATISTICS_WRITING_DATE_UTC : 2017-10-02 23:57:12
_STATISTICS_TAGS : BPS DURATION NUMBER_OF_FRAMES NUMBER_OF_BYTES

Audio #1
ID : 2
Format : AC-3
Format/Info : Audio Coding 3
Mode extension : CM (complete main)
Format settings, Endianness : Big
Codec ID : A_AC3
Duration : 2h 21mn
Bit rate mode : Constant
Bit rate : 448 Kbps
Channel count : 6 channels
Channel positions : Front: L C R, Side: L R, LFE
Sampling rate : 48.0 KHz
Bit depth : 16 bits
Compression mode : Lossy
Delay relative to video : -5ms
Stream size : 453 MiB (10%)
Title : Audio Latino
Language : Latin
Default : Yes
Forced : No
DURATION : 02:21:15.936000000
NUMBER_OF_FRAMES : 264873
NUMBER_OF_BYTES : 474652416
_STATISTICS_WRITING_APP : mkvmerge v15.0.0 ('Duel with the Devil') 32-bit
_STATISTICS_WRITING_DATE_UTC : 2017-10-02 23:57:12
_STATISTICS_TAGS : BPS DURATION NUMBER_OF_FRAMES NUMBER_OF_BYTES

Audio #2
ID : 3
Format : AC-3
Format/Info : Audio Coding 3
Mode extension : CM (complete main)
Format settings, Endianness : Big
Codec ID : A_AC3
Duration : 2h 21mn
Bit rate mode : Constant
Bit rate : 448 Kbps
Channel count : 6 channels
Channel positions : Front: L C R, Side: L R, LFE
Sampling rate : 48.0 KHz
Bit depth : 16 bits
Compression mode : Lossy
Delay relative to video : -5ms
Stream size : 453 MiB (10%)
Title : Audio Ingles
Language : English
Default : No
Forced : No

Text #1
ID : 4
Format : ASS
Codec ID : S_TEXT/ASS
Codec ID/Info : Advanced Sub Station Alpha
Compression mode : Lossless
Title : Forzados
Language : Spanish
Default : Yes
Forced : No

Text #2
ID : 5
Format : ASS
Codec ID : S_TEXT/ASS
Codec ID/Info : Advanced Sub Station Alpha
Compression mode : Lossless
Title : Completos
Language : Spanish
Default : No
Forced : No

Menu
00:00:00.000 : en:00:00:00.000
00:10:26.918 : en:00:10:26.918
00:23:12.558 : en:00:23:12.558
00:33:10.739 : en:00:33:10.739
00:43:55.132 : en:00:43:55.132
00:54:25.554 : en:00:54:25.554
01:07:38.263 : en:01:07:38.263
01:22:30.195 : en:01:22:30.195
01:34:02.846 : en:01:34:02.846
01:45:37.998 : en:01:45:37.998
01:57:43.765 : en:01:57:43.765
02:10:41.417 : en:02:10:41.417


Reportar Error Visitas: 17