Paste MC

Mega Colecciones

Transformers El Último Caballero (2017) FULL HD 3D SBS NFO

General
Unique ID : 241138421463941757755795471992653407794 (0xB569921708A57FE9881A0AD1AEECE632)
Complete name : P:\RJGA0103-10-013-3D\Transformers El Último Caballero (2017) Latino HD 3D SBS 1080P.mkv
Format : Matroska
Format version : Version 4 / Version 2
File size : 5.46 GiB
Duration : 2 h 34 min
Overall bit rate : 5 055 kb/s
Movie name : www.MegaColecciones.com
Encoded date : UTC 2017-10-03 00:01:37 / UTC 2017-09-20T17:35:05Z
Writing application : mkvmerge v15.0.0 ('Duel with the Devil') 32-bit
Writing library : libebml v1.3.5 + libmatroska v1.4.5 / Lavf57.7.2

Video
ID : 1
Format : AVC
Format/Info : Advanced Video Codec
Format profile : [email protected]
Format settings : CABAC / 4 Ref Frames
Format settings, CABAC : Yes
Format settings, RefFrames : 4 frames
Codec ID : V_MPEG4/ISO/AVC
Duration : 2 h 34 min
Bit rate : 3 850 kb/s
Width : 1 920 pixels
Height : 1 016 pixels
Display aspect ratio : 1.890
Frame rate mode : Constant
Frame rate : 23.976 (24000/1001) FPS
Color space : YUV
Chroma subsampling : 4:2:0
Bit depth : 8 bits
Scan type : Progressive
Bits/(Pixel*Frame) : 0.082
Stream size : 3.97 GiB (73%)
Title : www.MegaColecciones.com
Writing library : x264 core 148 r2708 86b7198
Encoding settings : cabac=1 / ref=4 / deblock=1:-1:-1 / analyse=0x3:0x113 / me=umh / subme=8 / psy=1 / psy_rd=1.00:0.15 / mixed_ref=1 / me_range=16 / chroma_me=1 / trellis=1 / 8x8dct=1 / cqm=0 / deadzone=21,11 / fast_pskip=1 / chroma_qp_offset=-3 / threads=12 / lookahead_threads=2 / sliced_threads=0 / nr=0 / decimate=1 / interlaced=0 / bluray_compat=0 / constrained_intra=0 / bframes=3 / b_pyramid=2 / b_adapt=2 / b_bias=0 / direct=3 / weightb=1 / open_gop=0 / weightp=2 / keyint=240 / keyint_min=24 / scenecut=40 / intra_refresh=0 / rc_lookahead=50 / rc=abr / mbtree=1 / bitrate=3850 / ratetol=1.0 / qcomp=0.60 / qpmin=0 / qpmax=69 / qpstep=4 / vbv_maxrate=62500 / vbv_bufsize=78125 / nal_hrd=none / filler=0 / ip_ratio=1.40 / aq=1:1.00
Default : Yes
Forced : No
Color range : Limited
Color primaries : BT.709
Transfer characteristics : BT.709
Matrix coefficients : BT.709
Statistics Tags Issue : mkvmerge v15.0.0 ('Duel with the Devil') 32-bit 2017-10-03 00:01:37 / mkvmerge v15.0.0 ('Duel with the Devil') 32-bit 2017-10-03 00:01:37 / UTC 2017-09-20T17:35:05Z
FromStats_BitRate : 3742566
FromStats_Duration : 02:34:37.185000000
FromStats_FrameCount : 222430
FromStats_StreamSize : 4340059855

Audio #1
ID : 2
Format : AC-3
Format/Info : Audio Coding 3
Format settings, Endianness : Big
Codec ID : A_AC3
Duration : 2 h 34 min
Bit rate mode : Constant
Bit rate : 640 kb/s
Channel(s) : 6 channels
Channel positions : Front: L C R, Side: L R, LFE
Sampling rate : 48.0 kHz
Frame rate : 31.250 FPS (1536 SPF)
Bit depth : 16 bits
Compression mode : Lossy
Delay relative to video : -5 ms
Stream size : 708 MiB (13%)
Title : Surround
Language : Latin
Service kind : Complete Main
Default : Yes
Forced : No
Statistics Tags Issue : mkvmerge v15.0.0 ('Duel with the Devil') 32-bit 2017-10-03 00:01:37 / mkvmerge v15.0.0 ('Duel with the Devil') 32-bit 2017-10-03 00:01:37 / UTC 2017-09-20T17:35:05Z
FromStats_BitRate : 640000
FromStats_Duration : 02:34:37.888000000
FromStats_FrameCount : 289934
FromStats_StreamSize : 742231040

Audio #2
ID : 3
Format : AC-3
Format/Info : Audio Coding 3
Format settings, Endianness : Big
Codec ID : A_AC3
Duration : 2 h 34 min
Bit rate mode : Constant
Bit rate : 640 kb/s
Channel(s) : 6 channels
Channel positions : Front: L C R, Side: L R, LFE
Sampling rate : 48.0 kHz
Frame rate : 31.250 FPS (1536 SPF)
Bit depth : 16 bits
Compression mode : Lossy
Delay relative to video : -5 ms
Stream size : 708 MiB (13%)
Title : Surround
Language : English
Service kind : Complete Main
Default : No
Forced : No
Statistics Tags Issue : mkvmerge v15.0.0 ('Duel with the Devil') 32-bit 2017-10-03 00:01:37 / mkvmerge v15.0.0 ('Duel with the Devil') 32-bit 2017-10-03 00:01:37 / UTC 2017-09-20T17:35:05Z
FromStats_BitRate : 640000
FromStats_Duration : 02:34:37.696000000
FromStats_FrameCount : 289928
FromStats_StreamSize : 742215680

Text #1
ID : 4
Format : PGS
Muxing mode : zlib
Codec ID : S_HDMV/PGS
Codec ID/Info : Picture based subtitle format used on BDs/HD-DVDs
Language : Spanish
Default : No
Forced : No
Statistics Tags Issue : mkvmerge v15.0.0 ('Duel with the Devil') 32-bit 2017-10-03 00:01:37 / mkvmerge v15.0.0 ('Duel with the Devil') 32-bit 2017-10-03 00:01:37 / UTC 2017-09-20T17:35:05Z
FromStats_BitRate : 51739
FromStats_Duration : 02:25:43.318000000
FromStats_FrameCount : 4576
FromStats_StreamSize : 56546454

Text #2
ID : 5
Format : PGS
Muxing mode : zlib
Codec ID : S_HDMV/PGS
Codec ID/Info : Picture based subtitle format used on BDs/HD-DVDs
Language : English
Default : No
Forced : No
Statistics Tags Issue : mkvmerge v15.0.0 ('Duel with the Devil') 32-bit 2017-10-03 00:01:37 / mkvmerge v15.0.0 ('Duel with the Devil') 32-bit 2017-10-03 00:01:37 / UTC 2017-09-20T17:35:05Z
FromStats_BitRate : 55338
FromStats_Duration : 02:24:43.467000000
FromStats_FrameCount : 4552
FromStats_StreamSize : 60066276


Reportar Error Visitas: 20