Paste MC

Mega Colecciones

Alien Resurrection (1997) Theatrical Cut BRRIP 1080p 60 FPS NFO

General
Unique ID : 253434208869890449409874580737112942308 (0xBEA9A736C4E7F10B632268971A6826E4)
Complete name : P:\RJGA0103-10-011-1080P60FPS\Alien Resurrection 1997 Theatrical Cut 1080p 60 FPS.mkv
Format : Matroska
Format version : Version 4 / Version 2
File size : 5.84 GiB
Duration : 1h 48mn
Overall bit rate : 7 681 Kbps
Encoded date : UTC 2017-07-18T15:44:29Z
Writing application : HandBrake 1.0.3 2017022500
Writing library : Lavf57.7.2

Video
ID : 1
Format : AVC
Format/Info : Advanced Video Codec
Format profile : [email protected]
Format settings, CABAC : No
Format settings, ReFrames : 1 frame
Codec ID : V_MPEG4/ISO/AVC
Duration : 1h 48mn
Bit rate : 7 000 Kbps
Width : 1 920 pixels
Height : 820 pixels
Display aspect ratio : 2.35:1
Frame rate mode : Constant
Frame rate : 60.000 fps
Color space : YUV
Chroma subsampling : 4:2:0
Bit depth : 8 bits
Scan type : Progressive
Bits/(Pixel*Frame) : 0.074
Stream size : 5.23 GiB (90%)
Writing library : x264 core 148 r2708 86b7198
Encoding settings : cabac=0 / ref=1 / deblock=0:-1:-1 / analyse=0:0 / me=dia / subme=0 / psy=1 / psy_rd=1.00:0.15 / mixed_ref=0 / me_range=16 / chroma_me=1 / trellis=0 / 8x8dct=0 / cqm=0 / deadzone=21,11 / fast_pskip=1 / chroma_qp_offset=0 / threads=24 / lookahead_threads=4 / sliced_threads=0 / nr=0 / decimate=1 / interlaced=0 / bluray_compat=0 / constrained_intra=0 / bframes=0 / weightp=0 / keyint=240 / keyint_min=24 / scenecut=0 / intra_refresh=0 / rc_lookahead=0 / rc=abr / mbtree=0 / bitrate=7000 / ratetol=1.0 / qcomp=0.60 / qpmin=0 / qpmax=69 / qpstep=4 / vbv_maxrate=20000 / vbv_bufsize=25000 / nal_hrd=none / filler=0 / ip_ratio=1.40 / aq=0
Default : Yes
Forced : No
Color primaries : BT.709
Transfer characteristics : BT.709
Matrix coefficients : BT.709

Audio #1
ID : 2
Format : AC-3
Format/Info : Audio Coding 3
Mode extension : CM (complete main)
Format settings, Endianness : Big
Codec ID : A_AC3
Duration : 1h 48mn
Bit rate mode : Constant
Bit rate : 320 Kbps
Channel count : 6 channels
Channel positions : Front: L C R, Side: L R, LFE
Sampling rate : 48.0 KHz
Bit depth : 16 bits
Compression mode : Lossy
Delay relative to video : -5ms
Stream size : 249 MiB (4%)
Title : LATINO
Language : Spanish
Default : Yes
Forced : No

Audio #2
ID : 3
Format : AC-3
Format/Info : Audio Coding 3
Mode extension : CM (complete main)
Format settings, Endianness : Big
Codec ID : A_AC3
Duration : 1h 48mn
Bit rate mode : Constant
Bit rate : 320 Kbps
Channel count : 6 channels
Channel positions : Front: L C R, Side: L R, LFE
Sampling rate : 48.0 KHz
Bit depth : 16 bits
Compression mode : Lossy
Delay relative to video : -5ms
Stream size : 249 MiB (4%)
Title : INGLES
Language : English
Default : No
Forced : No

Text #1
ID : 4
Format : PGS
Codec ID : S_HDMV/PGS
Codec ID/Info : The same subtitle format used on BDs/HD-DVDs
Language : Spanish
Default : No
Forced : No

Text #2
ID : 5
Format : PGS
Codec ID : S_HDMV/PGS
Codec ID/Info : The same subtitle format used on BDs/HD-DVDs
Language : English
Default : No
Forced : No

Menu
00:00:00.000 : :Chapter 1
00:02:27.350 : :Chapter 2
00:05:17.100 : :Chapter 3
00:07:36.233 : :Chapter 4
00:10:26.283 : :Chapter 5
00:13:08.117 : :Chapter 6
00:18:06.250 : :Chapter 7
00:21:49.500 : :Chapter 8
00:25:38.367 : :Chapter 9
00:28:38.633 : :Chapter 10
00:32:46.200 : :Chapter 11
00:34:56.333 : :Chapter 12
00:38:06.200 : :Chapter 13
00:42:00.183 : :Chapter 14
00:49:04.900 : :Chapter 15
00:52:34.483 : :Chapter 16
00:58:31.167 : :Chapter 17
01:02:46.133 : :Chapter 18
01:13:56.083 : :Chapter 19
01:16:26.233 : :Chapter 20
01:21:15.950 : :Chapter 21
01:24:40.617 : :Chapter 22
01:27:10.000 : :Chapter 23
01:31:52.833 : :Chapter 24
01:33:39.983 : :Chapter 25
01:36:44.283 : :Chapter 26
01:40:46.817 : :Chapter 27
01:42:28.100 : :Chapter 28


Reportar Error Visitas: 21