Paste MC

Mega Colecciones

Alien Resurrection (1997) Theatrical Cut BRRIP 1080p NFO

General
Unique ID : 224450758798904571886388070796340887015 (0xA8DBA4CC37E5BFFDA86AAC9B6691FDE7)
Complete name : P:\RJGA0103-10-011-1080P\Alien Resurrection 1997 Theatrical Cut 1080p sin franjas.mkv
Format : Matroska
Format version : Version 4 / Version 2
File size : 3.19 GiB
Duration : 1h 48mn
Overall bit rate : 4 203 Kbps
Encoded date : UTC 2017-07-18T15:16:45Z
Writing application : HandBrake 1.0.3 2017022500
Writing library : Lavf57.7.2

Video
ID : 1
Format : AVC
Format/Info : Advanced Video Codec
Format profile : [email protected]
Format settings, CABAC : No
Format settings, ReFrames : 1 frame
Codec ID : V_MPEG4/ISO/AVC
Duration : 1h 48mn
Bit rate : 3 500 Kbps
Width : 1 920 pixels
Height : 820 pixels
Display aspect ratio : 2.35:1
Frame rate mode : Constant
Frame rate : 23.976 fps
Color space : YUV
Chroma subsampling : 4:2:0
Bit depth : 8 bits
Scan type : Progressive
Bits/(Pixel*Frame) : 0.093
Stream size : 2.64 GiB (83%)
Writing library : x264 core 148 r2708 86b7198
Encoding settings : cabac=0 / ref=1 / deblock=0:-1:-1 / analyse=0:0 / me=dia / subme=0 / psy=1 / psy_rd=1.00:0.15 / mixed_ref=0 / me_range=16 / chroma_me=1 / trellis=0 / 8x8dct=0 / cqm=0 / deadzone=21,11 / fast_pskip=1 / chroma_qp_offset=0 / threads=24 / lookahead_threads=4 / sliced_threads=0 / nr=0 / decimate=1 / interlaced=0 / bluray_compat=0 / constrained_intra=0 / bframes=0 / weightp=0 / keyint=240 / keyint_min=24 / scenecut=0 / intra_refresh=0 / rc_lookahead=0 / rc=abr / mbtree=0 / bitrate=3500 / ratetol=1.0 / qcomp=0.60 / qpmin=0 / qpmax=69 / qpstep=4 / vbv_maxrate=20000 / vbv_bufsize=25000 / nal_hrd=none / filler=0 / ip_ratio=1.40 / aq=0
Default : Yes
Forced : No
Color primaries : BT.709
Transfer characteristics : BT.709
Matrix coefficients : BT.709

Audio #1
ID : 2
Format : AC-3
Format/Info : Audio Coding 3
Mode extension : CM (complete main)
Format settings, Endianness : Big
Codec ID : A_AC3
Duration : 1h 48mn
Bit rate mode : Constant
Bit rate : 320 Kbps
Channel count : 6 channels
Channel positions : Front: L C R, Side: L R, LFE
Sampling rate : 48.0 KHz
Bit depth : 16 bits
Compression mode : Lossy
Delay relative to video : -5ms
Stream size : 249 MiB (8%)
Title : LATINO
Language : Spanish
Default : Yes
Forced : No

Audio #2
ID : 3
Format : AC-3
Format/Info : Audio Coding 3
Mode extension : CM (complete main)
Format settings, Endianness : Big
Codec ID : A_AC3
Duration : 1h 48mn
Bit rate mode : Constant
Bit rate : 320 Kbps
Channel count : 6 channels
Channel positions : Front: L C R, Side: L R, LFE
Sampling rate : 48.0 KHz
Bit depth : 16 bits
Compression mode : Lossy
Delay relative to video : -5ms
Stream size : 249 MiB (8%)
Title : INGLES
Language : English
Default : No
Forced : No

Text #1
ID : 4
Format : PGS
Codec ID : S_HDMV/PGS
Codec ID/Info : The same subtitle format used on BDs/HD-DVDs
Language : Spanish
Default : No
Forced : No

Text #2
ID : 5
Format : PGS
Codec ID : S_HDMV/PGS
Codec ID/Info : The same subtitle format used on BDs/HD-DVDs
Language : English
Default : No
Forced : No

Menu
00:00:00.000 : :Chapter 1
00:02:27.314 : :Chapter 2
00:05:17.108 : :Chapter 3
00:07:36.247 : :Chapter 4
00:10:26.251 : :Chapter 5
00:13:08.079 : :Chapter 6
00:18:06.210 : :Chapter 7
00:21:49.475 : :Chapter 8
00:25:38.328 : :Chapter 9
00:28:38.634 : :Chapter 10
00:32:46.214 : :Chapter 11
00:34:56.344 : :Chapter 12
00:38:06.159 : :Chapter 13
00:42:00.143 : :Chapter 14
00:49:04.859 : :Chapter 15
00:52:34.443 : :Chapter 16
00:58:31.133 : :Chapter 17
01:02:46.096 : :Chapter 18
01:13:56.098 : :Chapter 19
01:16:26.248 : :Chapter 20
01:21:15.954 : :Chapter 21
01:24:40.576 : :Chapter 22
01:27:09.975 : :Chapter 23
01:31:52.841 : :Chapter 24
01:33:39.948 : :Chapter 25
01:36:44.257 : :Chapter 26
01:40:46.832 : :Chapter 27
01:42:28.059 : :Chapter 28


Reportar Error Visitas: 45