Paste MC

Mega Colecciones

Assassin's Creed (2016) FULL HD 3D SBS NFO

General
Unique ID : 181060462461739376080877558187599527168 (0x8836FA0513AC0CDDABDCB255FEDAFD00)
Complete name : P:\RJGA0103-10-010-3D\Assassins Creed (2016) 1080p 3D SBS.mkv
Format : Matroska
Format version : Version 4 / Version 2
File size : 4.40 GiB
Duration : 1h 55mn
Overall bit rate : 5 448 Kbps
Movie name : www.MegaColecciones.com
Encoded date : UTC 2017-10-03 03:38:27
Writing application : mkvmerge v15.0.0 ('Duel with the Devil') 32-bit
Writing library : libebml v1.3.5 + libmatroska v1.4.5

Video
ID : 1
Format : AVC
Format/Info : Advanced Video Codec
Format profile : [email protected]
Format settings, CABAC : Yes
Format settings, ReFrames : 4 frames
Codec ID : V_MPEG4/ISO/AVC
Duration : 1h 55mn
Bit rate : 4 550 Kbps
Width : 1 920 pixels
Height : 804 pixels
Display aspect ratio : 2.40:1
Frame rate mode : Constant
Frame rate : 23.976 fps
Color space : YUV
Chroma subsampling : 4:2:0
Bit depth : 8 bits
Scan type : Progressive
Bits/(Pixel*Frame) : 0.123
Stream size : 3.59 GiB (82%)
Title : www.MegaColecciones.com
Writing library : x264 core 148 r2708 86b7198
Encoding settings : cabac=1 / ref=3 / deblock=1:-1:-1 / analyse=0x3:0x113 / me=hex / subme=7 / psy=1 / psy_rd=1.00:0.15 / mixed_ref=1 / me_range=16 / chroma_me=1 / trellis=1 / 8x8dct=1 / cqm=0 / deadzone=21,11 / fast_pskip=1 / chroma_qp_offset=-3 / threads=25 / lookahead_threads=4 / sliced_threads=0 / nr=0 / decimate=1 / interlaced=0 / bluray_compat=0 / constrained_intra=0 / bframes=3 / b_pyramid=2 / b_adapt=1 / b_bias=0 / direct=1 / weightb=1 / open_gop=0 / weightp=2 / keyint=240 / keyint_min=24 / scenecut=40 / intra_refresh=0 / rc_lookahead=40 / rc=abr / mbtree=1 / bitrate=4550 / ratetol=1.0 / qcomp=0.60 / qpmin=0 / qpmax=69 / qpstep=4 / vbv_maxrate=62500 / vbv_bufsize=78125 / nal_hrd=none / filler=0 / ip_ratio=1.40 / aq=1:1.00
Default : Yes
Forced : No
Color primaries : BT.709
Transfer characteristics : BT.709
Matrix coefficients : BT.709
DURATION : 01:55:30.340000000
NUMBER_OF_FRAMES : 166162
NUMBER_OF_BYTES : 3932002405
_STATISTICS_WRITING_APP : mkvmerge v15.0.0 ('Duel with the Devil') 32-bit
_STATISTICS_WRITING_DATE_UTC : 2017-10-03 03:38:27
_STATISTICS_TAGS : BPS DURATION NUMBER_OF_FRAMES NUMBER_OF_BYTES

Audio #1
ID : 2
Format : AC-3
Format/Info : Audio Coding 3
Mode extension : CM (complete main)
Format settings, Endianness : Big
Codec ID : A_AC3
Duration : 1h 55mn
Bit rate mode : Constant
Bit rate : 448 Kbps
Channel count : 6 channels
Channel positions : Front: L C R, Side: L R, LFE
Sampling rate : 48.0 KHz
Bit depth : 16 bits
Compression mode : Lossy
Stream size : 370 MiB (8%)
Title : Latino
Language : Latin
Default : Yes
Forced : Yes
DURATION : 01:55:30.976000000
NUMBER_OF_FRAMES : 216593
NUMBER_OF_BYTES : 388134656
_STATISTICS_WRITING_APP : mkvmerge v15.0.0 ('Duel with the Devil') 32-bit
_STATISTICS_WRITING_DATE_UTC : 2017-10-03 03:38:27
_STATISTICS_TAGS : BPS DURATION NUMBER_OF_FRAMES NUMBER_OF_BYTES

Audio #2
ID : 3
Format : AC-3
Format/Info : Audio Coding 3
Mode extension : CM (complete main)
Format settings, Endianness : Big
Codec ID : A_AC3
Duration : 1h 55mn
Bit rate mode : Constant
Bit rate : 448 Kbps
Channel count : 6 channels
Channel positions : Front: L C R, Side: L R, LFE
Sampling rate : 48.0 KHz
Bit depth : 16 bits
Compression mode : Lossy
Stream size : 370 MiB (8%)
Title : Ingles
Language : English
Default : No
Forced : No
DURATION : 01:55:30.976000000
NUMBER_OF_FRAMES : 216593
NUMBER_OF_BYTES : 388134656
_STATISTICS_WRITING_APP : mkvmerge v15.0.0 ('Duel with the Devil') 32-bit
_STATISTICS_WRITING_DATE_UTC : 2017-10-03 03:38:27
_STATISTICS_TAGS : BPS DURATION NUMBER_OF_FRAMES NUMBER_OF_BYTES

Text #1
ID : 4
Format : PGS
Muxing mode : zlib
Codec ID : S_HDMV/PGS
Codec ID/Info : The same subtitle format used on BDs/HD-DVDs
Title : Latino
Language : Spanish
Default : No
Forced : No
DURATION : 01:53:58.207000000
NUMBER_OF_FRAMES : 1135
NUMBER_OF_BYTES : 13516466
_STATISTICS_WRITING_APP : mkvmerge v15.0.0 ('Duel with the Devil') 32-bit
_STATISTICS_WRITING_DATE_UTC : 2017-10-03 03:38:27
_STATISTICS_TAGS : BPS DURATION NUMBER_OF_FRAMES NUMBER_OF_BYTES

Text #2
ID : 5
Format : PGS
Muxing mode : zlib
Codec ID : S_HDMV/PGS
Codec ID/Info : The same subtitle format used on BDs/HD-DVDs
Title : Ingles
Language : English
Default : No
Forced : No
DURATION : 01:42:13.252000000
NUMBER_OF_FRAMES : 1762
NUMBER_OF_BYTES : 18624768
_STATISTICS_WRITING_APP : mkvmerge v15.0.0 ('Duel with the Devil') 32-bit
_STATISTICS_WRITING_DATE_UTC : 2017-10-03 03:38:27
_STATISTICS_TAGS : BPS DURATION NUMBER_OF_FRAMES NUMBER_OF_BYTES

Menu
00:00:00.000 : :(01)00:00:00:000
00:06:04.155 : :(02)00:06:04:155
00:09:32.697 : :(03)00:09:32:697
00:12:47.517 : :(04)00:12:47:516
00:16:47.715 : :(05)00:16:47:715
00:21:07.433 : :(06)00:21:07:432
00:26:56.448 : :(07)00:26:56:448
00:31:55.080 : :(08)00:31:55:079
00:38:06.284 : :(09)00:38:06:284
00:41:43.167 : :(10)00:41:43:167
00:46:33.040 : :(11)00:46:33:040
00:50:10.257 : :(12)00:50:10:257
00:53:04.390 : :(13)00:53:04:389
00:56:17.624 : :(14)00:56:17:624
00:59:26.480 : :(15)00:59:26:479
01:02:32.582 : :(16)01:02:32:582
01:06:37.035 : :(17)01:06:37:034
01:13:08.759 : :(18)01:13:08:759
01:18:45.888 : :(19)01:18:45:887
01:23:01.101 : :(20)01:23:01:101
01:30:17.996 : :(21)01:30:17:995
01:34:18.194 : :(22)01:34:18:194
01:37:45.193 : :(23)01:37:45:192
01:40:51.087 : :(24)01:40:51:003


Reportar Error Visitas: 34