Paste MC

Mega Colecciones

La bella y la bestia (2017) FULL HD 3D SBS NFO

General
Unique ID : 185468497445873584556796856863633038489 (0x8B87EEEC8FE75C46A0FA3F8370DDDC99)
Complete name : P:\RJGA0103-10-009-3D\Beauty and the Beast (2017) Latino Full 3D SBS 1080P.mkv
Format : Matroska
Format version : Version 4 / Version 2
File size : 4.92 GiB
Duration : 2h 9mn
Overall bit rate : 5 447 Kbps
Movie name : www.MegaColecciones.com
Encoded date : UTC 2017-10-03 00:05:53
Writing application : mkvmerge v15.0.0 ('Duel with the Devil') 32-bit
Writing library : libebml v1.3.5 + libmatroska v1.4.5
DURATION : 02:01:55.327000000
NUMBER_OF_FRAMES : 1595
NUMBER_OF_BYTES : 44782
_STATISTICS_WRITING_APP : mkvmerge v15.0.0 ('Duel with the Devil') 32-bit
_STATISTICS_WRITING_DATE_UTC : 2017-10-03 00:05:53
_STATISTICS_TAGS : BPS DURATION NUMBER_OF_FRAMES NUMBER_OF_BYTES

Video
ID : 1
Format : AVC
Format/Info : Advanced Video Codec
Format profile : [email protected]
Format settings, CABAC : Yes
Format settings, ReFrames : 4 frames
Codec ID : V_MPEG4/ISO/AVC
Duration : 2h 9mn
Bit rate : 4 250 Kbps
Width : 1 920 pixels
Height : 1 080 pixels
Display aspect ratio : 16:9
Frame rate mode : Constant
Frame rate : 23.976 fps
Color space : YUV
Chroma subsampling : 4:2:0
Bit depth : 8 bits
Scan type : Progressive
Bits/(Pixel*Frame) : 0.085
Stream size : 3.78 GiB (77%)
Title : www.MegaColecciones.com
Writing library : x264 core 148 r2708 86b7198
Encoding settings : cabac=1 / ref=3 / deblock=1:-1:-1 / analyse=0x3:0x113 / me=hex / subme=7 / psy=1 / psy_rd=1.00:0.15 / mixed_ref=1 / me_range=16 / chroma_me=1 / trellis=1 / 8x8dct=1 / cqm=0 / deadzone=21,11 / fast_pskip=1 / chroma_qp_offset=-3 / threads=34 / lookahead_threads=5 / sliced_threads=0 / nr=0 / decimate=1 / interlaced=0 / bluray_compat=0 / constrained_intra=0 / bframes=3 / b_pyramid=2 / b_adapt=1 / b_bias=0 / direct=1 / weightb=1 / open_gop=0 / weightp=2 / keyint=240 / keyint_min=24 / scenecut=40 / intra_refresh=0 / rc_lookahead=40 / rc=2pass / mbtree=1 / bitrate=4250 / ratetol=1.0 / qcomp=0.60 / qpmin=0 / qpmax=69 / qpstep=4 / cplxblur=20.0 / qblur=0.5 / vbv_maxrate=62500 / vbv_bufsize=78125 / nal_hrd=none / filler=0 / ip_ratio=1.40 / aq=1:1.00
Default : Yes
Forced : No
Color primaries : BT.709
Transfer characteristics : BT.709
Matrix coefficients : BT.709
DURATION : 02:09:15.873000000
NUMBER_OF_FRAMES : 185955
NUMBER_OF_BYTES : 4120293041
_STATISTICS_WRITING_APP : mkvmerge v15.0.0 ('Duel with the Devil') 32-bit
_STATISTICS_WRITING_DATE_UTC : 2017-10-03 00:05:53
_STATISTICS_TAGS : BPS DURATION NUMBER_OF_FRAMES NUMBER_OF_BYTES

Audio #1
ID : 2
Format : AC-3
Format/Info : Audio Coding 3
Mode extension : CM (complete main)
Format settings, Endianness : Big
Codec ID : A_AC3
Duration : 2h 9mn
Bit rate mode : Constant
Bit rate : 640 Kbps
Channel count : 6 channels
Channel positions : Front: L C R, Side: L R, LFE
Sampling rate : 48.0 KHz
Bit depth : 16 bits
Compression mode : Lossy
Delay relative to video : -5ms
Stream size : 592 MiB (12%)
Title : Latino
Language : Latin
Default : Yes
Forced : No
DURATION : 02:09:16.832000000
NUMBER_OF_FRAMES : 242401
NUMBER_OF_BYTES : 496437248
_STATISTICS_WRITING_APP : mkvmerge v15.0.0 ('Duel with the Devil') 32-bit
_STATISTICS_WRITING_DATE_UTC : 2017-10-03 00:05:53
_STATISTICS_TAGS : BPS DURATION NUMBER_OF_FRAMES NUMBER_OF_BYTES

Audio #2
ID : 3
Format : AC-3
Format/Info : Audio Coding 3
Mode extension : CM (complete main)
Format settings, Endianness : Big
Codec ID : A_AC3
Duration : 2h 9mn
Bit rate mode : Constant
Bit rate : 512 Kbps
Channel count : 6 channels
Channel positions : Front: L C R, Side: L R, LFE
Sampling rate : 48.0 KHz
Bit depth : 16 bits
Compression mode : Lossy
Delay relative to video : -5ms
Stream size : 473 MiB (9%)
Title : Surround
Language : English
Default : No
Forced : No
DURATION : 02:08:03.510000000
NUMBER_OF_FRAMES : 3390
NUMBER_OF_BYTES : 39637554
_STATISTICS_WRITING_APP : mkvmerge v15.0.0 ('Duel with the Devil') 32-bit
_STATISTICS_WRITING_DATE_UTC : 2017-10-03 00:05:53
_STATISTICS_TAGS : BPS DURATION NUMBER_OF_FRAMES NUMBER_OF_BYTES

Text #1
ID : 4
Format : PGS
Muxing mode : zlib
Codec ID : S_HDMV/PGS
Codec ID/Info : The same subtitle format used on BDs/HD-DVDs
Title : Canciones
Language : Spanish
Default : Yes
Forced : No

Text #2
ID : 5
Format : PGS
Muxing mode : zlib
Codec ID : S_HDMV/PGS
Codec ID/Info : The same subtitle format used on BDs/HD-DVDs
Title : Latino
Language : Spanish
Default : No
Forced : No

Text #3
ID : 6
Format : PGS
Muxing mode : zlib
Codec ID : S_HDMV/PGS
Codec ID/Info : The same subtitle format used on BDs/HD-DVDs
Title : Ingles
Language : English
Default : No
Forced : No

Text #4
ID : 7
Format : UTF-8
Codec ID : S_TEXT/UTF8
Codec ID/Info : UTF-8 Plain Text
Title : Latino SRT
Default : No
Forced : No

Menu
00:00:00.000 : :(01)00:00:00:000
00:04:36.359 : :(02)00:04:36:276
00:08:06.528 : :(03)00:08:06:527
00:11:18.261 : :(04)00:11:18:260
00:15:21.546 : :(05)00:15:21:545
00:18:57.386 : :(06)00:18:57:386
00:25:05.921 : :(07)00:25:05:921
00:31:41.566 : :(08)00:31:41:566
00:36:08.708 : :(09)00:36:08:708
00:42:32.258 : :(10)00:42:32:258
00:47:01.319 : :(11)00:47:01:318
00:54:44.990 : :(12)00:54:44:990
01:00:43.557 : :(13)01:00:43:556
01:07:40.932 : :(14)01:07:40:931
01:14:38.224 : :(15)01:14:38:223
01:19:43.696 : :(16)01:19:43:695
01:22:02.751 : :(17)01:22:02:751
01:28:53.370 : :(18)01:28:53:369
01:34:01.302 : :(19)01:34:01:302
01:38:10.218 : :(20)01:38:10:175
01:45:23.692 : :(21)01:45:23:692
01:49:13.964 : :(22)01:49:13:964
01:55:54.197 : :(23)01:55:54:197
01:58:49.539 : :(24)01:58:49:497


Reportar Error Visitas: 31