Paste MC

Mega Colecciones

El Rey Arturo: La leyenda de la espada (2017) FULL HD 3D SBS NFO

General
Unique ID : 222537102040448179292451060592960261036 (0xA76B163C2C998CC0B4D4C00B4782CBAC)
Complete name : P:\RJGA0103-10-008-3D\El Rey Arturo La Leyenda de la Espada (2017) Latino Full 3D SBS 1080P.mkv
Format : Matroska
Format version : Version 4 / Version 2
File size : 4.51 GiB
Duration : 2h 6mn
Overall bit rate : 5 111 Kbps
Movie name : www.MegaColecciones.com
Encoded date : UTC 2017-08-02T20:53:56Z
Writing application : mkvmerge v15.0.0 ('Duel with the Devil') 32-bit
Writing library : Lavf57.7.2
DURATION : 01:58:40.930000000
NUMBER_OF_FRAMES : 2530
NUMBER_OF_BYTES : 152166
_STATISTICS_WRITING_APP : mkvmerge v15.0.0 ('Duel with the Devil') 32-bit
_STATISTICS_WRITING_DATE_UTC : 2017-10-02 23:49:45
_STATISTICS_TAGS : BPS DURATION NUMBER_OF_FRAMES NUMBER_OF_BYTES

Video
ID : 1
Format : AVC
Format/Info : Advanced Video Codec
Format profile : [email protected]
Format settings, CABAC : Yes
Format settings, ReFrames : 4 frames
Codec ID : V_MPEG4/ISO/AVC
Duration : 2h 6mn
Bit rate : 4 300 Kbps
Width : 1 920 pixels
Height : 1 080 pixels
Display aspect ratio : 16:9
Frame rate mode : Constant
Frame rate : 23.976 fps
Color space : YUV
Chroma subsampling : 4:2:0
Bit depth : 8 bits
Scan type : Progressive
Bits/(Pixel*Frame) : 0.086
Stream size : 3.63 GiB (80%)
Title : www.MegaColecciones.com
Writing library : x264 core 148 r2708 86b7198
Encoding settings : cabac=1 / ref=2 / deblock=1:0:0 / analyse=0x3:0x113 / me=hex / subme=6 / psy=1 / psy_rd=1.00:0.00 / mixed_ref=1 / me_range=16 / chroma_me=1 / trellis=1 / 8x8dct=1 / cqm=0 / deadzone=21,11 / fast_pskip=1 / chroma_qp_offset=-2 / threads=34 / lookahead_threads=5 / sliced_threads=0 / nr=0 / decimate=1 / interlaced=0 / bluray_compat=0 / constrained_intra=0 / bframes=3 / b_pyramid=2 / b_adapt=1 / b_bias=0 / direct=1 / weightb=1 / open_gop=0 / weightp=1 / keyint=240 / keyint_min=24 / scenecut=40 / intra_refresh=0 / rc_lookahead=30 / rc=abr / mbtree=1 / bitrate=4300 / ratetol=1.0 / qcomp=0.60 / qpmin=0 / qpmax=69 / qpstep=4 / vbv_maxrate=62500 / vbv_bufsize=78125 / nal_hrd=none / filler=0 / ip_ratio=1.40 / aq=1:1.00
Default : Yes
Forced : No
Color primaries : BT.709
Transfer characteristics : BT.709
Matrix coefficients : BT.709
DURATION : 02:06:12.565000000
NUMBER_OF_FRAMES : 181560
NUMBER_OF_BYTES : 3988394507
_STATISTICS_WRITING_APP : mkvmerge v15.0.0 ('Duel with the Devil') 32-bit
_STATISTICS_WRITING_DATE_UTC : 2017-10-02 23:49:45
_STATISTICS_TAGS : BPS DURATION NUMBER_OF_FRAMES NUMBER_OF_BYTES

Audio #1
ID : 2
Format : AC-3
Format/Info : Audio Coding 3
Mode extension : CM (complete main)
Format settings, Endianness : Big
Codec ID : A_AC3
Duration : 2h 6mn
Bit rate mode : Constant
Bit rate : 448 Kbps
Channel count : 6 channels
Channel positions : Front: L C R, Side: L R, LFE
Sampling rate : 48.0 KHz
Bit depth : 16 bits
Compression mode : Lossy
Stream size : 404 MiB (9%)
Title : Audio Latino
Language : Latin
Default : Yes
Forced : No
DURATION : 02:06:13.472000000
NUMBER_OF_FRAMES : 236671
NUMBER_OF_BYTES : 424114432
_STATISTICS_WRITING_APP : mkvmerge v15.0.0 ('Duel with the Devil') 32-bit
_STATISTICS_WRITING_DATE_UTC : 2017-10-02 23:49:45
_STATISTICS_TAGS : BPS DURATION NUMBER_OF_FRAMES NUMBER_OF_BYTES

Audio #2
ID : 3
Format : AC-3
Format/Info : Audio Coding 3
Mode extension : CM (complete main)
Format settings, Endianness : Big
Codec ID : A_AC3
Duration : 2h 6mn
Bit rate mode : Constant
Bit rate : 448 Kbps
Channel count : 6 channels
Channel positions : Front: L C R, Side: L R, LFE
Sampling rate : 48.0 KHz
Bit depth : 16 bits
Compression mode : Lossy
Stream size : 404 MiB (9%)
Title : Audio Ingles
Language : English
Default : No
Forced : No

Text
ID : 4
Format : ASS
Codec ID : S_TEXT/ASS
Codec ID/Info : Advanced Sub Station Alpha
Compression mode : Lossless
Title : Subtitulos Latino
Language : Spanish
Default : No
Forced : No

Menu
00:00:00.000 : :(01)00:00:00:000
00:12:43.221 : :(02)00:12:43:220
00:21:05.347 : :(03)00:21:05:347
00:32:32.659 : :(04)00:32:32:659
00:43:09.378 : :(05)00:43:09:378
00:56:47.988 : :(06)00:56:47:987
01:06:48.546 : :(07)01:06:48:546
01:14:13.032 : :(08)01:14:13:031
01:23:44.394 : :(09)01:23:44:394
01:36:36.791 : :(10)01:36:36:791
01:46:57.244 : :(11)01:46:57:244
01:58:58.798 : :(12)01:58:58:798


Reportar Error Visitas: 29