Paste MC

Mega Colecciones

The Mummy-NFO

Disc Title: La Momia BD50
Disc Size: 49.833.959.661 bytes
Protection: AACS
BD-Java: Yes
BDInfo: 0.5.8

********************
PLAYLIST: 00800.MPLS
********************

<--- BEGIN FORUMS PASTE --->

Total Video
Title Codec Length Movie Size Disc Size Bitrate Bitrate Main Audio Track Secondary Audio Track
----- ------ ------- -------------- -------------- ------- ------- ------------------ ---------------------
00800.MPLS AVC 1:50:05 0 49.833.959.661 0,00 0,00 Dolby TrueHD 7.1 (48kHz/24-bit)




DISC INFO:

Disc Title: La Momia BD50
Disc Size: 49.833.959.661 bytes
Protection: AACS
BD-Java: Yes
BDInfo: 0.5.8

PLAYLIST REPORT:

Name: 00800.MPLS
Length: 1:50:05.640 (h:m:s.ms)
Size: 0 bytes
Total Bitrate: 0,00 Mbps

VIDEO:

Codec Bitrate Description
----- ------- -----------
MPEG-4 AVC Video 0 kbps 1080p / 23,976 fps / 16:9 / High Profile 4.1

AUDIO:

Codec Language Bitrate Description
----- -------- ------- -----------
Dolby TrueHD Audio English 0 kbps 7.1 / 48 kHz / 24-bit (AC3 Embedded: 5.1 / 48 kHz / 640 kbps / DN -4dB)
Dolby Digital Plus Audio French 576 kbps 5.1 / 48 kHz / 576 kbps
DTS Audio Italian 768 kbps 5.1 / 48 kHz / 768 kbps / 24-bit
DTS-HD Master Audio Spanish 0 kbps 7.1 / 48 kHz / 24-bit (DTS Core: 5.1 / 48 kHz / 1509 kbps / 24-bit)
DTS Audio Hindi 768 kbps 5.1 / 48 kHz / 768 kbps / 24-bit
Dolby Digital Audio French 192 kbps 2.0 / 48 kHz / 192 kbps / DN -4dB / Dolby Surround
Dolby Digital Audio English 192 kbps 2.0 / 48 kHz / 192 kbps / DN -7dB / Dolby Surround
DTS Audio Spanish 768 kbps 5.1 / 48 kHz / 768 kbps / 24-bit

SUBTITLES:

Codec Language Bitrate Description
----- -------- ------- -----------
Presentation Graphics English 0,000 kbps
Presentation Graphics French 0,000 kbps
Presentation Graphics Italian 0,000 kbps
Presentation Graphics Spanish 0,000 kbps
Presentation Graphics Dutch 0,000 kbps
Presentation Graphics Danish 0,000 kbps
Presentation Graphics Finnish 0,000 kbps
Presentation Graphics Norwegian 0,000 kbps
Presentation Graphics Swedish 0,000 kbps
Presentation Graphics Hindi 0,000 kbps
Presentation Graphics Arabic 0,000 kbps
Presentation Graphics Icelandic 0,000 kbps
Presentation Graphics English 0,000 kbps
Presentation Graphics French 0,000 kbps
Presentation Graphics Italian 0,000 kbps
Presentation Graphics Spanish 0,000 kbps
Presentation Graphics English 0,000 kbps
Presentation Graphics French 0,000 kbps
Presentation Graphics Italian 0,000 kbps
Presentation Graphics Spanish 0,000 kbps
Presentation Graphics Hindi 0,000 kbps

FILES:

Name Time In Length Size Total Bitrate
---- ------- ------ ---- -------------
00800.M2TS 0:00:00.000 1:50:05.640 0 0

CHAPTERS:

Number Time In Length Avg Video Rate Max 1-Sec Rate Max 1-Sec Time Max 5-Sec Rate Max 5-Sec Time Max 10Sec Rate Max 10Sec Time Avg Frame Size Max Frame Size Max Frame Time
------ ------- ------ -------------- -------------- -------------- -------------- -------------- -------------- -------------- -------------- -------------- --------------
1 0:00:00.000 0:08:18.706 0 kbps 0 kbps 00:00:00.000 0 kbps 00:00:00.000 0 kbps 00:00:00.000 0 bytes 0 bytes 00:00:00.000
2 0:08:18.706 0:05:00.217 0 kbps 0 kbps 00:00:00.000 0 kbps 00:00:00.000 0 kbps 00:00:00.000 0 bytes 0 bytes 00:00:00.000
3 0:13:18.923 0:06:12.538 0 kbps 0 kbps 00:00:00.000 0 kbps 00:00:00.000 0 kbps 00:00:00.000 0 bytes 0 bytes 00:00:00.000
4 0:19:31.461 0:05:08.683 0 kbps 0 kbps 00:00:00.000 0 kbps 00:00:00.000 0 kbps 00:00:00.000 0 bytes 0 bytes 00:00:00.000
5 0:24:40.144 0:04:13.962 0 kbps 0 kbps 00:00:00.000 0 kbps 00:00:00.000 0 kbps 00:00:00.000 0 bytes 0 bytes 00:00:00.000
6 0:28:54.106 0:06:47.283 0 kbps 0 kbps 00:00:00.000 0 kbps 00:00:00.000 0 kbps 00:00:00.000 0 bytes 0 bytes 00:00:00.000
7 0:35:41.389 0:03:54.649 0 kbps 0 kbps 00:00:00.000 0 kbps 00:00:00.000 0 kbps 00:00:00.000 0 bytes 0 bytes 00:00:00.000
8 0:39:36.038 0:07:24.028 0 kbps 0 kbps 00:00:00.000 0 kbps 00:00:00.000 0 kbps 00:00:00.000 0 bytes 0 bytes 00:00:00.000
9 0:47:00.067 0:03:57.569 0 kbps 0 kbps 00:00:00.000 0 kbps 00:00:00.000 0 kbps 00:00:00.000 0 bytes 0 bytes 00:00:00.000
10 0:50:57.636 0:05:52.101 0 kbps 0 kbps 00:00:00.000 0 kbps 00:00:00.000 0 kbps 00:00:00.000 0 bytes 0 bytes 00:00:00.000
11 0:56:49.738 0:03:54.108 0 kbps 0 kbps 00:00:00.000 0 kbps 00:00:00.000 0 kbps 00:00:00.000 0 bytes 0 bytes 00:00:00.000
12 1:00:43.847 0:08:14.159 0 kbps 0 kbps 00:00:00.000 0 kbps 00:00:00.000 0 kbps 00:00:00.000 0 bytes 0 bytes 00:00:00.000
13 1:08:58.006 0:07:05.843 0 kbps 0 kbps 00:00:00.000 0 kbps 00:00:00.000 0 kbps 00:00:00.000 0 bytes 0 bytes 00:00:00.000
14 1:16:03.850 0:03:34.588 0 kbps 0 kbps 00:00:00.000 0 kbps 00:00:00.000 0 kbps 00:00:00.000 0 bytes 0 bytes 00:00:00.000
15 1:19:38.439 0:03:37.969 0 kbps 0 kbps 00:00:00.000 0 kbps 00:00:00.000 0 kbps 00:00:00.000 0 bytes 0 bytes 00:00:00.000
16 1:23:16.408 0:03:10.439 0 kbps 0 kbps 00:00:00.000 0 kbps 00:00:00.000 0 kbps 00:00:00.000 0 bytes 0 bytes 00:00:00.000
17 1:26:26.847 0:07:08.094 0 kbps 0 kbps 00:00:00.000 0 kbps 00:00:00.000 0 kbps 00:00:00.000 0 bytes 0 bytes 00:00:00.000
18 1:33:34.942 0:03:28.041 0 kbps 0 kbps 00:00:00.000 0 kbps 00:00:00.000 0 kbps 00:00:00.000 0 bytes 0 bytes 00:00:00.000
19 1:37:02.983 0:02:44.997 0 kbps 0 kbps 00:00:00.000 0 kbps 00:00:00.000 0 kbps 00:00:00.000 0 bytes 0 bytes 00:00:00.000
20 1:39:47.980 0:10:17.660 0 kbps 0 kbps 00:00:00.000 0 kbps 00:00:00.000 0 kbps 00:00:00.000 0 bytes 0 bytes 00:00:00.000

STREAM DIAGNOSTICS:

File PID Type Codec Language Seconds Bitrate Bytes Packets
---- --- ---- ----- -------- -------------- -------------- ------------- -----
00800.M2TS 4113 (0x1011) 0x1B AVC 0 0 0 0
00800.M2TS 4352 (0x1100) 0x83 TrueHD eng (English) 0 0 0 0
00800.M2TS 4353 (0x1101) 0x84 AC3+ fra (French) 0 0 0 0
00800.M2TS 4354 (0x1102) 0x82 DTS ita (Italian) 0 0 0 0
00800.M2TS 4355 (0x1103) 0x86 DTS-HD MA spa (Spanish) 0 0 0 0
00800.M2TS 4356 (0x1104) 0x82 DTS hin (Hindi) 0 0 0 0
00800.M2TS 4357 (0x1105) 0x81 AC3 fra (French) 0 0 0 0
00800.M2TS 4358 (0x1106) 0x81 AC3 eng (English) 0 0 0 0
00800.M2TS 4359 (0x1107) 0x82 DTS spa (Spanish) 0 0 0 0
00800.M2TS 4608 (0x1200) 0x90 PGS eng (English) 0 0 0 0
00800.M2TS 4609 (0x1201) 0x90 PGS fra (French) 0 0 0 0
00800.M2TS 4610 (0x1202) 0x90 PGS ita (Italian) 0 0 0 0
00800.M2TS 4611 (0x1203) 0x90 PGS spa (Spanish) 0 0 0 0
00800.M2TS 4612 (0x1204) 0x90 PGS nld (Dutch) 0 0 0 0
00800.M2TS 4613 (0x1205) 0x90 PGS dan (Danish) 0 0 0 0
00800.M2TS 4614 (0x1206) 0x90 PGS fin (Finnish) 0 0 0 0
00800.M2TS 4615 (0x1207) 0x90 PGS nor (Norwegian) 0 0 0 0
00800.M2TS 4616 (0x1208) 0x90 PGS swe (Swedish) 0 0 0 0
00800.M2TS 4617 (0x1209) 0x90 PGS hin (Hindi) 0 0 0 0
00800.M2TS 4618 (0x120A) 0x90 PGS ara (Arabic) 0 0 0 0
00800.M2TS 4619 (0x120B) 0x90 PGS isl (Icelandic) 0 0 0 0
00800.M2TS 4620 (0x120C) 0x90 PGS eng (English) 0 0 0 0
00800.M2TS 4621 (0x120D) 0x90 PGS fra (French) 0 0 0 0
00800.M2TS 4622 (0x120E) 0x90 PGS ita (Italian) 0 0 0 0
00800.M2TS 4623 (0x120F) 0x90 PGS spa (Spanish) 0 0 0 0
00800.M2TS 4624 (0x1210) 0x90 PGS eng (English) 0 0 0 0
00800.M2TS 4625 (0x1211) 0x90 PGS fra (French) 0 0 0 0
00800.M2TS 4626 (0x1212) 0x90 PGS ita (Italian) 0 0 0 0
00800.M2TS 4627 (0x1213) 0x90 PGS spa (Spanish) 0 0 0 0
00800.M2TS 4628 (0x1214) 0x90 PGS hin (Hindi) 0 0 0 0


<---- END FORUMS PASTE ---->

QUICK SUMMARY:

Disc Title: La Momia BD50
Disc Size: 49.833.959.661 bytes
Protection: AACS
BD-Java: Yes
Playlist: 00800.MPLS
Size: 0 bytes
Length: 1:50:05.640
Total Bitrate: 0,00 Mbps
Video: MPEG-4 AVC Video / 0 kbps / 1080p / 23,976 fps / 16:9 / High Profile 4.1
Audio: English / Dolby TrueHD Audio / 7.1 / 48 kHz / 24-bit (AC3 Embedded: 5.1 / 48 kHz / 640 kbps / DN -4dB)
Audio: French / Dolby Digital Plus Audio / 5.1 / 48 kHz / 576 kbps
Audio: Italian / DTS Audio / 5.1 / 48 kHz / 768 kbps / 24-bit
Audio: Spanish / DTS-HD Master Audio / 7.1 / 48 kHz / 24-bit (DTS Core: 5.1 / 48 kHz / 1509 kbps / 24-bit)
Audio: Hindi / DTS Audio / 5.1 / 48 kHz / 768 kbps / 24-bit
Audio: French / Dolby Digital Audio / 2.0 / 48 kHz / 192 kbps / DN -4dB / Dolby Surround
Audio: English / Dolby Digital Audio / 2.0 / 48 kHz / 192 kbps / DN -7dB / Dolby Surround
Audio: Spanish / DTS Audio / 5.1 / 48 kHz / 768 kbps / 24-bit
Subtitle: English / 0,000 kbps
Subtitle: French / 0,000 kbps
Subtitle: Italian / 0,000 kbps
Subtitle: Spanish / 0,000 kbps
Subtitle: Dutch / 0,000 kbps
Subtitle: Danish / 0,000 kbps
Subtitle: Finnish / 0,000 kbps
Subtitle: Norwegian / 0,000 kbps
Subtitle: Swedish / 0,000 kbps
Subtitle: Hindi / 0,000 kbps
Subtitle: Arabic / 0,000 kbps
Subtitle: Icelandic / 0,000 kbps
Subtitle: English / 0,000 kbps
Subtitle: French / 0,000 kbps
Subtitle: Italian / 0,000 kbps
Subtitle: Spanish / 0,000 kbps
Subtitle: English / 0,000 kbps
Subtitle: French / 0,000 kbps
Subtitle: Italian / 0,000 kbps
Subtitle: Spanish / 0,000 kbps
Subtitle: Hindi / 0,000 kbps


********************
PLAYLIST: 00312.MPLS
********************

<--- BEGIN FORUMS PASTE --->

Total Video
Title Codec Length Movie Size Disc Size Bitrate Bitrate Main Audio Track Secondary Audio Track
----- ------ ------- -------------- -------------- ------- ------- ------------------ ---------------------
00312.MPLS AVC 0:21:15 0 49.833.959.661 0,00 0,00 DD AC3 2.0 192Kbps




DISC INFO:

Disc Title: La Momia BD50
Disc Size: 49.833.959.661 bytes
Protection: AACS
BD-Java: Yes
BDInfo: 0.5.8

PLAYLIST REPORT:

Name: 00312.MPLS
Length: 0:21:15.440 (h:m:s.ms)
Size: 0 bytes
Total Bitrate: 0,00 Mbps

VIDEO:

Codec Bitrate Description
----- ------- -----------
MPEG-4 AVC Video 0 kbps 1080p / 23,976 fps / 16:9 / High Profile 4.1

AUDIO:

Codec Language Bitrate Description
----- -------- ------- -----------
Dolby Digital Audio English 192 kbps 2.0 / 48 kHz / 192 kbps / DN -4dB

SUBTITLES:

Codec Language Bitrate Description
----- -------- ------- -----------
Presentation Graphics English 0,000 kbps
Presentation Graphics French 0,000 kbps
Presentation Graphics Italian 0,000 kbps
Presentation Graphics Spanish 0,000 kbps
Presentation Graphics Dutch 0,000 kbps
Presentation Graphics Arabic 0,000 kbps

FILES:

Name Time In Length Size Total Bitrate
---- ------- ------ ---- -------------
00312.M2TS 0:00:00.000 0:21:15.440 0 0

CHAPTERS:

Number Time In Length Avg Video Rate Max 1-Sec Rate Max 1-Sec Time Max 5-Sec Rate Max 5-Sec Time Max 10Sec Rate Max 10Sec Time Avg Frame Size Max Frame Size Max Frame Time
------ ------- ------ -------------- -------------- -------------- -------------- -------------- -------------- -------------- -------------- -------------- --------------
1 0:00:00.000 0:21:15.440 0 kbps 0 kbps 00:00:00.000 0 kbps 00:00:00.000 0 kbps 00:00:00.000 0 bytes 0 bytes 00:00:00.000

STREAM DIAGNOSTICS:

File PID Type Codec Language Seconds Bitrate Bytes Packets
---- --- ---- ----- -------- -------------- -------------- ------------- -----
00312.M2TS 4113 (0x1011) 0x1B AVC 0 0 0 0
00312.M2TS 4352 (0x1100) 0x81 AC3 eng (English) 0 0 0 0
00312.M2TS 4608 (0x1200) 0x90 PGS eng (English) 0 0 0 0
00312.M2TS 4609 (0x1201) 0x90 PGS fra (French) 0 0 0 0
00312.M2TS 4610 (0x1202) 0x90 PGS ita (Italian) 0 0 0 0
00312.M2TS 4611 (0x1203) 0x90 PGS spa (Spanish) 0 0 0 0
00312.M2TS 4612 (0x1204) 0x90 PGS nld (Dutch) 0 0 0 0
00312.M2TS 4613 (0x1205) 0x90 PGS ara (Arabic) 0 0 0 0


<---- END FORUMS PASTE ---->

QUICK SUMMARY:

Disc Title: La Momia BD50
Disc Size: 49.833.959.661 bytes
Protection: AACS
BD-Java: Yes
Playlist: 00312.MPLS
Size: 0 bytes
Length: 0:21:15.440
Total Bitrate: 0,00 Mbps
Video: MPEG-4 AVC Video / 0 kbps / 1080p / 23,976 fps / 16:9 / High Profile 4.1
Audio: English / Dolby Digital Audio / 2.0 / 48 kHz / 192 kbps / DN -4dB
Subtitle: English / 0,000 kbps
Subtitle: French / 0,000 kbps
Subtitle: Italian / 0,000 kbps
Subtitle: Spanish / 0,000 kbps
Subtitle: Dutch / 0,000 kbps
Subtitle: Arabic / 0,000 kbps


********************
PLAYLIST: 00315.MPLS
********************

<--- BEGIN FORUMS PASTE --->

Total Video
Title Codec Length Movie Size Disc Size Bitrate Bitrate Main Audio Track Secondary Audio Track
----- ------ ------- -------------- -------------- ------- ------- ------------------ ---------------------
00315.MPLS AVC 0:07:39 0 49.833.959.661 0,00 0,00 DD AC3 2.0 192Kbps




DISC INFO:

Disc Title: La Momia BD50
Disc Size: 49.833.959.661 bytes
Protection: AACS
BD-Java: Yes
BDInfo: 0.5.8

PLAYLIST REPORT:

Name: 00315.MPLS
Length: 0:07:39.375 (h:m:s.ms)
Size: 0 bytes
Total Bitrate: 0,00 Mbps

VIDEO:

Codec Bitrate Description
----- ------- -----------
MPEG-4 AVC Video 0 kbps 1080p / 23,976 fps / 16:9 / High Profile 4.1

AUDIO:

Codec Language Bitrate Description
----- -------- ------- -----------
Dolby Digital Audio English 192 kbps 2.0 / 48 kHz / 192 kbps / DN -4dB

SUBTITLES:

Codec Language Bitrate Description
----- -------- ------- -----------
Presentation Graphics English 0,000 kbps
Presentation Graphics French 0,000 kbps
Presentation Graphics Italian 0,000 kbps
Presentation Graphics Spanish 0,000 kbps
Presentation Graphics Dutch 0,000 kbps
Presentation Graphics Arabic 0,000 kbps

FILES:

Name Time In Length Size Total Bitrate
---- ------- ------ ---- -------------
00315.M2TS 0:00:00.000 0:07:39.375 0 0

CHAPTERS:

Number Time In Length Avg Video Rate Max 1-Sec Rate Max 1-Sec Time Max 5-Sec Rate Max 5-Sec Time Max 10Sec Rate Max 10Sec Time Avg Frame Size Max Frame Size Max Frame Time
------ ------- ------ -------------- -------------- -------------- -------------- -------------- -------------- -------------- -------------- -------------- --------------
1 0:00:00.000 0:07:39.375 0 kbps 0 kbps 00:00:00.000 0 kbps 00:00:00.000 0 kbps 00:00:00.000 0 bytes 0 bytes 00:00:00.000

STREAM DIAGNOSTICS:

File PID Type Codec Language Seconds Bitrate Bytes Packets
---- --- ---- ----- -------- -------------- -------------- ------------- -----
00315.M2TS 4113 (0x1011) 0x1B AVC 0 0 0 0
00315.M2TS 4352 (0x1100) 0x81 AC3 eng (English) 0 0 0 0
00315.M2TS 4608 (0x1200) 0x90 PGS eng (English) 0 0 0 0
00315.M2TS 4609 (0x1201) 0x90 PGS fra (French) 0 0 0 0
00315.M2TS 4610 (0x1202) 0x90 PGS ita (Italian) 0 0 0 0
00315.M2TS 4611 (0x1203) 0x90 PGS spa (Spanish) 0 0 0 0
00315.M2TS 4612 (0x1204) 0x90 PGS nld (Dutch) 0 0 0 0
00315.M2TS 4613 (0x1205) 0x90 PGS ara (Arabic) 0 0 0 0


<---- END FORUMS PASTE ---->

QUICK SUMMARY:

Disc Title: La Momia BD50
Disc Size: 49.833.959.661 bytes
Protection: AACS
BD-Java: Yes
Playlist: 00315.MPLS
Size: 0 bytes
Length: 0:07:39.375
Total Bitrate: 0,00 Mbps
Video: MPEG-4 AVC Video / 0 kbps / 1080p / 23,976 fps / 16:9 / High Profile 4.1
Audio: English / Dolby Digital Audio / 2.0 / 48 kHz / 192 kbps / DN -4dB
Subtitle: English / 0,000 kbps
Subtitle: French / 0,000 kbps
Subtitle: Italian / 0,000 kbps
Subtitle: Spanish / 0,000 kbps
Subtitle: Dutch / 0,000 kbps
Subtitle: Arabic / 0,000 kbps


********************
PLAYLIST: 00314.MPLS
********************

<--- BEGIN FORUMS PASTE --->

Total Video
Title Codec Length Movie Size Disc Size Bitrate Bitrate Main Audio Track Secondary Audio Track
----- ------ ------- -------------- -------------- ------- ------- ------------------ ---------------------
00314.MPLS AVC 0:07:32 0 49.833.959.661 0,00 0,00 DD AC3 2.0 192Kbps




DISC INFO:

Disc Title: La Momia BD50
Disc Size: 49.833.959.661 bytes
Protection: AACS
BD-Java: Yes
BDInfo: 0.5.8

PLAYLIST REPORT:

Name: 00314.MPLS
Length: 0:07:32.869 (h:m:s.ms)
Size: 0 bytes
Total Bitrate: 0,00 Mbps

VIDEO:

Codec Bitrate Description
----- ------- -----------
MPEG-4 AVC Video 0 kbps 1080p / 23,976 fps / 16:9 / High Profile 4.1

AUDIO:

Codec Language Bitrate Description
----- -------- ------- -----------
Dolby Digital Audio English 192 kbps 2.0 / 48 kHz / 192 kbps / DN -4dB

SUBTITLES:

Codec Language Bitrate Description
----- -------- ------- -----------
Presentation Graphics English 0,000 kbps
Presentation Graphics French 0,000 kbps
Presentation Graphics Italian 0,000 kbps
Presentation Graphics Spanish 0,000 kbps
Presentation Graphics Dutch 0,000 kbps
Presentation Graphics Arabic 0,000 kbps

FILES:

Name Time In Length Size Total Bitrate
---- ------- ------ ---- -------------
00314.M2TS 0:00:00.000 0:07:32.869 0 0

CHAPTERS:

Number Time In Length Avg Video Rate Max 1-Sec Rate Max 1-Sec Time Max 5-Sec Rate Max 5-Sec Time Max 10Sec Rate Max 10Sec Time Avg Frame Size Max Frame Size Max Frame Time
------ ------- ------ -------------- -------------- -------------- -------------- -------------- -------------- -------------- -------------- -------------- --------------
1 0:00:00.000 0:07:32.869 0 kbps 0 kbps 00:00:00.000 0 kbps 00:00:00.000 0 kbps 00:00:00.000 0 bytes 0 bytes 00:00:00.000

STREAM DIAGNOSTICS:

File PID Type Codec Language Seconds Bitrate Bytes Packets
---- --- ---- ----- -------- -------------- -------------- ------------- -----
00314.M2TS 4113 (0x1011) 0x1B AVC 0 0 0 0
00314.M2TS 4352 (0x1100) 0x81 AC3 eng (English) 0 0 0 0
00314.M2TS 4608 (0x1200) 0x90 PGS eng (English) 0 0 0 0
00314.M2TS 4609 (0x1201) 0x90 PGS fra (French) 0 0 0 0
00314.M2TS 4610 (0x1202) 0x90 PGS ita (Italian) 0 0 0 0
00314.M2TS 4611 (0x1203) 0x90 PGS spa (Spanish) 0 0 0 0
00314.M2TS 4612 (0x1204) 0x90 PGS nld (Dutch) 0 0 0 0
00314.M2TS 4613 (0x1205) 0x90 PGS ara (Arabic) 0 0 0 0


<---- END FORUMS PASTE ---->

QUICK SUMMARY:

Disc Title: La Momia BD50
Disc Size: 49.833.959.661 bytes
Protection: AACS
BD-Java: Yes
Playlist: 00314.MPLS
Size: 0 bytes
Length: 0:07:32.869
Total Bitrate: 0,00 Mbps
Video: MPEG-4 AVC Video / 0 kbps / 1080p / 23,976 fps / 16:9 / High Profile 4.1
Audio: English / Dolby Digital Audio / 2.0 / 48 kHz / 192 kbps / DN -4dB
Subtitle: English / 0,000 kbps
Subtitle: French / 0,000 kbps
Subtitle: Italian / 0,000 kbps
Subtitle: Spanish / 0,000 kbps
Subtitle: Dutch / 0,000 kbps
Subtitle: Arabic / 0,000 kbps


********************
PLAYLIST: 00317.MPLS
********************

<--- BEGIN FORUMS PASTE --->

Total Video
Title Codec Length Movie Size Disc Size Bitrate Bitrate Main Audio Track Secondary Audio Track
----- ------ ------- -------------- -------------- ------- ------- ------------------ ---------------------
00317.MPLS AVC 0:07:10 0 49.833.959.661 0,00 0,00 DD AC3 2.0 192Kbps




DISC INFO:

Disc Title: La Momia BD50
Disc Size: 49.833.959.661 bytes
Protection: AACS
BD-Java: Yes
BDInfo: 0.5.8

PLAYLIST REPORT:

Name: 00317.MPLS
Length: 0:07:10.638 (h:m:s.ms)
Size: 0 bytes
Total Bitrate: 0,00 Mbps

VIDEO:

Codec Bitrate Description
----- ------- -----------
MPEG-4 AVC Video 0 kbps 1080p / 23,976 fps / 16:9 / High Profile 4.1

AUDIO:

Codec Language Bitrate Description
----- -------- ------- -----------
Dolby Digital Audio English 192 kbps 2.0 / 48 kHz / 192 kbps / DN -4dB

SUBTITLES:

Codec Language Bitrate Description
----- -------- ------- -----------
Presentation Graphics English 0,000 kbps
Presentation Graphics French 0,000 kbps
Presentation Graphics Italian 0,000 kbps
Presentation Graphics Spanish 0,000 kbps
Presentation Graphics Dutch 0,000 kbps
Presentation Graphics Arabic 0,000 kbps

FILES:

Name Time In Length Size Total Bitrate
---- ------- ------ ---- -------------
00317.M2TS 0:00:00.000 0:07:10.638 0 0

CHAPTERS:

Number Time In Length Avg Video Rate Max 1-Sec Rate Max 1-Sec Time Max 5-Sec Rate Max 5-Sec Time Max 10Sec Rate Max 10Sec Time Avg Frame Size Max Frame Size Max Frame Time
------ ------- ------ -------------- -------------- -------------- -------------- -------------- -------------- -------------- -------------- -------------- --------------
1 0:00:00.000 0:07:10.638 0 kbps 0 kbps 00:00:00.000 0 kbps 00:00:00.000 0 kbps 00:00:00.000 0 bytes 0 bytes 00:00:00.000

STREAM DIAGNOSTICS:

File PID Type Codec Language Seconds Bitrate Bytes Packets
---- --- ---- ----- -------- -------------- -------------- ------------- -----
00317.M2TS 4113 (0x1011) 0x1B AVC 0 0 0 0
00317.M2TS 4352 (0x1100) 0x81 AC3 eng (English) 0 0 0 0
00317.M2TS 4608 (0x1200) 0x90 PGS eng (English) 0 0 0 0
00317.M2TS 4609 (0x1201) 0x90 PGS fra (French) 0 0 0 0
00317.M2TS 4610 (0x1202) 0x90 PGS ita (Italian) 0 0 0 0
00317.M2TS 4611 (0x1203) 0x90 PGS spa (Spanish) 0 0 0 0
00317.M2TS 4612 (0x1204) 0x90 PGS nld (Dutch) 0 0 0 0
00317.M2TS 4613 (0x1205) 0x90 PGS ara (Arabic) 0 0 0 0


<---- END FORUMS PASTE ---->

QUICK SUMMARY:

Disc Title: La Momia BD50
Disc Size: 49.833.959.661 bytes
Protection: AACS
BD-Java: Yes
Playlist: 00317.MPLS
Size: 0 bytes
Length: 0:07:10.638
Total Bitrate: 0,00 Mbps
Video: MPEG-4 AVC Video / 0 kbps / 1080p / 23,976 fps / 16:9 / High Profile 4.1
Audio: English / Dolby Digital Audio / 2.0 / 48 kHz / 192 kbps / DN -4dB
Subtitle: English / 0,000 kbps
Subtitle: French / 0,000 kbps
Subtitle: Italian / 0,000 kbps
Subtitle: Spanish / 0,000 kbps
Subtitle: Dutch / 0,000 kbps
Subtitle: Arabic / 0,000 kbps


********************
PLAYLIST: 00313.MPLS
********************

<--- BEGIN FORUMS PASTE --->

Total Video
Title Codec Length Movie Size Disc Size Bitrate Bitrate Main Audio Track Secondary Audio Track
----- ------ ------- -------------- -------------- ------- ------- ------------------ ---------------------
00313.MPLS AVC 0:06:52 0 49.833.959.661 0,00 0,00 DD AC3 2.0 192Kbps




DISC INFO:

Disc Title: La Momia BD50
Disc Size: 49.833.959.661 bytes
Protection: AACS
BD-Java: Yes
BDInfo: 0.5.8

PLAYLIST REPORT:

Name: 00313.MPLS
Length: 0:06:52.870 (h:m:s.ms)
Size: 0 bytes
Total Bitrate: 0,00 Mbps

VIDEO:

Codec Bitrate Description
----- ------- -----------
MPEG-4 AVC Video 0 kbps 1080p / 23,976 fps / 16:9 / High Profile 4.1

AUDIO:

Codec Language Bitrate Description
----- -------- ------- -----------
Dolby Digital Audio English 192 kbps 2.0 / 48 kHz / 192 kbps / DN -4dB

SUBTITLES:

Codec Language Bitrate Description
----- -------- ------- -----------
Presentation Graphics English 0,000 kbps
Presentation Graphics French 0,000 kbps
Presentation Graphics Italian 0,000 kbps
Presentation Graphics Spanish 0,000 kbps
Presentation Graphics Dutch 0,000 kbps
Presentation Graphics Arabic 0,000 kbps

FILES:

Name Time In Length Size Total Bitrate
---- ------- ------ ---- -------------
00313.M2TS 0:00:00.000 0:06:52.870 0 0

CHAPTERS:

Number Time In Length Avg Video Rate Max 1-Sec Rate Max 1-Sec Time Max 5-Sec Rate Max 5-Sec Time Max 10Sec Rate Max 10Sec Time Avg Frame Size Max Frame Size Max Frame Time
------ ------- ------ -------------- -------------- -------------- -------------- -------------- -------------- -------------- -------------- -------------- --------------
1 0:00:00.000 0:06:52.870 0 kbps 0 kbps 00:00:00.000 0 kbps 00:00:00.000 0 kbps 00:00:00.000 0 bytes 0 bytes 00:00:00.000

STREAM DIAGNOSTICS:

File PID Type Codec Language Seconds Bitrate Bytes Packets
---- --- ---- ----- -------- -------------- -------------- ------------- -----
00313.M2TS 4113 (0x1011) 0x1B AVC 0 0 0 0
00313.M2TS 4352 (0x1100) 0x81 AC3 eng (English) 0 0 0 0
00313.M2TS 4608 (0x1200) 0x90 PGS eng (English) 0 0 0 0
00313.M2TS 4609 (0x1201) 0x90 PGS fra (French) 0 0 0 0
00313.M2TS 4610 (0x1202) 0x90 PGS ita (Italian) 0 0 0 0
00313.M2TS 4611 (0x1203) 0x90 PGS spa (Spanish) 0 0 0 0
00313.M2TS 4612 (0x1204) 0x90 PGS nld (Dutch) 0 0 0 0
00313.M2TS 4613 (0x1205) 0x90 PGS ara (Arabic) 0 0 0 0


<---- END FORUMS PASTE ---->

QUICK SUMMARY:

Disc Title: La Momia BD50
Disc Size: 49.833.959.661 bytes
Protection: AACS
BD-Java: Yes
Playlist: 00313.MPLS
Size: 0 bytes
Length: 0:06:52.870
Total Bitrate: 0,00 Mbps
Video: MPEG-4 AVC Video / 0 kbps / 1080p / 23,976 fps / 16:9 / High Profile 4.1
Audio: English / Dolby Digital Audio / 2.0 / 48 kHz / 192 kbps / DN -4dB
Subtitle: English / 0,000 kbps
Subtitle: French / 0,000 kbps
Subtitle: Italian / 0,000 kbps
Subtitle: Spanish / 0,000 kbps
Subtitle: Dutch / 0,000 kbps
Subtitle: Arabic / 0,000 kbps


********************
PLAYLIST: 00318.MPLS
********************

<--- BEGIN FORUMS PASTE --->

Total Video
Title Codec Length Movie Size Disc Size Bitrate Bitrate Main Audio Track Secondary Audio Track
----- ------ ------- -------------- -------------- ------- ------- ------------------ ---------------------
00318.MPLS AVC 0:06:35 0 49.833.959.661 0,00 0,00 DD AC3 2.0 192Kbps




DISC INFO:

Disc Title: La Momia BD50
Disc Size: 49.833.959.661 bytes
Protection: AACS
BD-Java: Yes
BDInfo: 0.5.8

PLAYLIST REPORT:

Name: 00318.MPLS
Length: 0:06:35.395 (h:m:s.ms)
Size: 0 bytes
Total Bitrate: 0,00 Mbps

VIDEO:

Codec Bitrate Description
----- ------- -----------
MPEG-4 AVC Video 0 kbps 1080p / 23,976 fps / 16:9 / High Profile 4.1

AUDIO:

Codec Language Bitrate Description
----- -------- ------- -----------
Dolby Digital Audio English 192 kbps 2.0 / 48 kHz / 192 kbps / DN -4dB

SUBTITLES:

Codec Language Bitrate Description
----- -------- ------- -----------
Presentation Graphics English 0,000 kbps
Presentation Graphics French 0,000 kbps
Presentation Graphics Italian 0,000 kbps
Presentation Graphics Spanish 0,000 kbps
Presentation Graphics Dutch 0,000 kbps
Presentation Graphics Arabic 0,000 kbps

FILES:

Name Time In Length Size Total Bitrate
---- ------- ------ ---- -------------
00318.M2TS 0:00:00.000 0:06:35.395 0 0

CHAPTERS:

Number Time In Length Avg Video Rate Max 1-Sec Rate Max 1-Sec Time Max 5-Sec Rate Max 5-Sec Time Max 10Sec Rate Max 10Sec Time Avg Frame Size Max Frame Size Max Frame Time
------ ------- ------ -------------- -------------- -------------- -------------- -------------- -------------- -------------- -------------- -------------- --------------
1 0:00:00.000 0:06:35.395 0 kbps 0 kbps 00:00:00.000 0 kbps 00:00:00.000 0 kbps 00:00:00.000 0 bytes 0 bytes 00:00:00.000

STREAM DIAGNOSTICS:

File PID Type Codec Language Seconds Bitrate Bytes Packets
---- --- ---- ----- -------- -------------- -------------- ------------- -----
00318.M2TS 4113 (0x1011) 0x1B AVC 0 0 0 0
00318.M2TS 4352 (0x1100) 0x81 AC3 eng (English) 0 0 0 0
00318.M2TS 4608 (0x1200) 0x90 PGS eng (English) 0 0 0 0
00318.M2TS 4609 (0x1201) 0x90 PGS fra (French) 0 0 0 0
00318.M2TS 4610 (0x1202) 0x90 PGS ita (Italian) 0 0 0 0
00318.M2TS 4611 (0x1203) 0x90 PGS spa (Spanish) 0 0 0 0
00318.M2TS 4612 (0x1204) 0x90 PGS nld (Dutch) 0 0 0 0
00318.M2TS 4613 (0x1205) 0x90 PGS ara (Arabic) 0 0 0 0


<---- END FORUMS PASTE ---->

QUICK SUMMARY:

Disc Title: La Momia BD50
Disc Size: 49.833.959.661 bytes
Protection: AACS
BD-Java: Yes
Playlist: 00318.MPLS
Size: 0 bytes
Length: 0:06:35.395
Total Bitrate: 0,00 Mbps
Video: MPEG-4 AVC Video / 0 kbps / 1080p / 23,976 fps / 16:9 / High Profile 4.1
Audio: English / Dolby Digital Audio / 2.0 / 48 kHz / 192 kbps / DN -4dB
Subtitle: English / 0,000 kbps
Subtitle: French / 0,000 kbps
Subtitle: Italian / 0,000 kbps
Subtitle: Spanish / 0,000 kbps
Subtitle: Dutch / 0,000 kbps
Subtitle: Arabic / 0,000 kbps


********************
PLAYLIST: 00316.MPLS
********************

<--- BEGIN FORUMS PASTE --->

Total Video
Title Codec Length Movie Size Disc Size Bitrate Bitrate Main Audio Track Secondary Audio Track
----- ------ ------- -------------- -------------- ------- ------- ------------------ ---------------------
00316.MPLS AVC 0:06:09 0 49.833.959.661 0,00 0,00 DD AC3 2.0 192Kbps




DISC INFO:

Disc Title: La Momia BD50
Disc Size: 49.833.959.661 bytes
Protection: AACS
BD-Java: Yes
BDInfo: 0.5.8

PLAYLIST REPORT:

Name: 00316.MPLS
Length: 0:06:09.494 (h:m:s.ms)
Size: 0 bytes
Total Bitrate: 0,00 Mbps

VIDEO:

Codec Bitrate Description
----- ------- -----------
MPEG-4 AVC Video 0 kbps 1080p / 23,976 fps / 16:9 / High Profile 4.1

AUDIO:

Codec Language Bitrate Description
----- -------- ------- -----------
Dolby Digital Audio English 192 kbps 2.0 / 48 kHz / 192 kbps / DN -4dB

SUBTITLES:

Codec Language Bitrate Description
----- -------- ------- -----------
Presentation Graphics English 0,000 kbps
Presentation Graphics French 0,000 kbps
Presentation Graphics Italian 0,000 kbps
Presentation Graphics Spanish 0,000 kbps
Presentation Graphics Dutch 0,000 kbps
Presentation Graphics Arabic 0,000 kbps

FILES:

Name Time In Length Size Total Bitrate
---- ------- ------ ---- -------------
00316.M2TS 0:00:00.000 0:06:09.494 0 0

CHAPTERS:

Number Time In Length Avg Video Rate Max 1-Sec Rate Max 1-Sec Time Max 5-Sec Rate Max 5-Sec Time Max 10Sec Rate Max 10Sec Time Avg Frame Size Max Frame Size Max Frame Time
------ ------- ------ -------------- -------------- -------------- -------------- -------------- -------------- -------------- -------------- -------------- --------------
1 0:00:00.000 0:06:09.494 0 kbps 0 kbps 00:00:00.000 0 kbps 00:00:00.000 0 kbps 00:00:00.000 0 bytes 0 bytes 00:00:00.000

STREAM DIAGNOSTICS:

File PID Type Codec Language Seconds Bitrate Bytes Packets
---- --- ---- ----- -------- -------------- -------------- ------------- -----
00316.M2TS 4113 (0x1011) 0x1B AVC 0 0 0 0
00316.M2TS 4352 (0x1100) 0x81 AC3 eng (English) 0 0 0 0
00316.M2TS 4608 (0x1200) 0x90 PGS eng (English) 0 0 0 0
00316.M2TS 4609 (0x1201) 0x90 PGS fra (French) 0 0 0 0
00316.M2TS 4610 (0x1202) 0x90 PGS ita (Italian) 0 0 0 0
00316.M2TS 4611 (0x1203) 0x90 PGS spa (Spanish) 0 0 0 0
00316.M2TS 4612 (0x1204) 0x90 PGS nld (Dutch) 0 0 0 0
00316.M2TS 4613 (0x1205) 0x90 PGS ara (Arabic) 0 0 0 0


<---- END FORUMS PASTE ---->

QUICK SUMMARY:

Disc Title: La Momia BD50
Disc Size: 49.833.959.661 bytes
Protection: AACS
BD-Java: Yes
Playlist: 00316.MPLS
Size: 0 bytes
Length: 0:06:09.494
Total Bitrate: 0,00 Mbps
Video: MPEG-4 AVC Video / 0 kbps / 1080p / 23,976 fps / 16:9 / High Profile 4.1
Audio: English / Dolby Digital Audio / 2.0 / 48 kHz / 192 kbps / DN -4dB
Subtitle: English / 0,000 kbps
Subtitle: French / 0,000 kbps
Subtitle: Italian / 0,000 kbps
Subtitle: Spanish / 0,000 kbps
Subtitle: Dutch / 0,000 kbps
Subtitle: Arabic / 0,000 kbps


********************
PLAYLIST: 00319.MPLS
********************

<--- BEGIN FORUMS PASTE --->

Total Video
Title Codec Length Movie Size Disc Size Bitrate Bitrate Main Audio Track Secondary Audio Track
----- ------ ------- -------------- -------------- ------- ------- ------------------ ---------------------
00319.MPLS AVC 0:05:43 0 49.833.959.661 0,00 0,00 DD AC3 2.0 192Kbps




DISC INFO:

Disc Title: La Momia BD50
Disc Size: 49.833.959.661 bytes
Protection: AACS
BD-Java: Yes
BDInfo: 0.5.8

PLAYLIST REPORT:

Name: 00319.MPLS
Length: 0:05:43.885 (h:m:s.ms)
Size: 0 bytes
Total Bitrate: 0,00 Mbps

VIDEO:

Codec Bitrate Description
----- ------- -----------
MPEG-4 AVC Video 0 kbps 1080p / 23,976 fps / 16:9 / High Profile 4.1

AUDIO:

Codec Language Bitrate Description
----- -------- ------- -----------
Dolby Digital Audio English 192 kbps 2.0 / 48 kHz / 192 kbps / DN -4dB

SUBTITLES:

Codec Language Bitrate Description
----- -------- ------- -----------
Presentation Graphics English 0,000 kbps
Presentation Graphics French 0,000 kbps
Presentation Graphics Italian 0,000 kbps
Presentation Graphics Spanish 0,000 kbps
Presentation Graphics Dutch 0,000 kbps
Presentation Graphics Arabic 0,000 kbps

FILES:

Name Time In Length Size Total Bitrate
---- ------- ------ ---- -------------
00319.M2TS 0:00:00.000 0:05:43.885 0 0

CHAPTERS:

Number Time In Length Avg Video Rate Max 1-Sec Rate Max 1-Sec Time Max 5-Sec Rate Max 5-Sec Time Max 10Sec Rate Max 10Sec Time Avg Frame Size Max Frame Size Max Frame Time
------ ------- ------ -------------- -------------- -------------- -------------- -------------- -------------- -------------- -------------- -------------- --------------
1 0:00:00.000 0:05:43.885 0 kbps 0 kbps 00:00:00.000 0 kbps 00:00:00.000 0 kbps 00:00:00.000 0 bytes 0 bytes 00:00:00.000

STREAM DIAGNOSTICS:

File PID Type Codec Language Seconds Bitrate Bytes Packets
---- --- ---- ----- -------- -------------- -------------- ------------- -----
00319.M2TS 4113 (0x1011) 0x1B AVC 0 0 0 0
00319.M2TS 4352 (0x1100) 0x81 AC3 eng (English) 0 0 0 0
00319.M2TS 4608 (0x1200) 0x90 PGS eng (English) 0 0 0 0
00319.M2TS 4609 (0x1201) 0x90 PGS fra (French) 0 0 0 0
00319.M2TS 4610 (0x1202) 0x90 PGS ita (Italian) 0 0 0 0
00319.M2TS 4611 (0x1203) 0x90 PGS spa (Spanish) 0 0 0 0
00319.M2TS 4612 (0x1204) 0x90 PGS nld (Dutch) 0 0 0 0
00319.M2TS 4613 (0x1205) 0x90 PGS ara (Arabic) 0 0 0 0


<---- END FORUMS PASTE ---->

QUICK SUMMARY:

Disc Title: La Momia BD50
Disc Size: 49.833.959.661 bytes
Protection: AACS
BD-Java: Yes
Playlist: 00319.MPLS
Size: 0 bytes
Length: 0:05:43.885
Total Bitrate: 0,00 Mbps
Video: MPEG-4 AVC Video / 0 kbps / 1080p / 23,976 fps / 16:9 / High Profile 4.1
Audio: English / Dolby Digital Audio / 2.0 / 48 kHz / 192 kbps / DN -4dB
Subtitle: English / 0,000 kbps
Subtitle: French / 0,000 kbps
Subtitle: Italian / 0,000 kbps
Subtitle: Spanish / 0,000 kbps
Subtitle: Dutch / 0,000 kbps
Subtitle: Arabic / 0,000 kbps


********************
PLAYLIST: 00077.MPLS
********************

<--- BEGIN FORUMS PASTE --->

Total Video
Title Codec Length Movie Size Disc Size Bitrate Bitrate Main Audio Track Secondary Audio Track
----- ------ ------- -------------- -------------- ------- ------- ------------------ ---------------------
00077.MPLS AVC 0:05:30 0 49.833.959.661 0,00 0,00


[code]

DISC INFO:

Disc Title: La Momia BD50
Disc Size: 49.833.959.661 bytes
Protection: AACS
BD-Java: Yes
BDInfo: 0.5.8

PLAYLIST REPORT:

Name: 00077.MPLS
Length: 0:05:30.371 (h:m:s.ms)
Size: 0 bytes
Total Bitrate: 0,00 Mbps

VIDEO:

Codec Bitrate Description
----- ------- -----------
MPEG-4 AVC Video 0 kbps 1080p / 23,976 fps / 16:9 / High Profile 4.1

FILES:

Name Time In Length Size Total Bitrate
---- ------- ------ ---- -------------
00041.M2TS 0:00:00.000 0:00:05.004 0 0
00041.M2TS 0:00:05.004 0:00:05.005 0 0
00041.M2TS 0:00:10.010 0:00:05.004 0 0
00041.M2TS 0:00:15.015 0:00:05.004 0 0
00041.M2TS 0:00:20.020 0:00:05.004 0 0
00041.M2TS 0:00:25.025 0:00:05.005 0 0
00041.M2TS 0:00:30.030 0:00:05.005 0 0
00041.M2TS 0:00:35.035 0:00:05.004 0 0
00041.M2TS 0:00:40.040 0:00:05.005 0 0
00041.M2TS 0:00:45.045 0:00:05.004 0 0
00041.M2TS 0:00:50.050 0:00:05.005 0 0
00041.M2TS 0:00:55.055 0:00:05.004 0 0
00041.M2TS 0:01:00.060 0:00:05.004 0 0
00041.M2TS 0:01:05.065 0:00:05.005 0 0
00041.M2TS 0:01:10.070 0:00:05.004 0 0
00041.M2TS 0:01:15.075 0:00:05.004 0 0
00041.M2TS 0:01:20.080 0:00:05.004 0 0
00041.M2TS 0:01:25.084 0:00:05.005 0 0
00041.M2TS 0:01:30.090 0:00:05.004 0 0
00041.M2TS 0:01:35.095 0:00:05.004 0 0
00041.M2TS 0:01:40.100 0:00:05.005 0 0
00041.M2TS 0:01:45.105 0:00:05.004 0 0
00041.M2TS 0:01:50.110 0:00:05.004 0 0
00041.M2TS 0:01:55.115 0:00:05.005 0 0
00041.M2TS 0:02:00.120 0:00:05.004 0 0
00041.M2TS 0:02:05.125 0:00:05.004 0 0
00041.M2TS 0:02:10.130 0:00:05.004 0 0
00041.M2TS 0:02:15.135 0:00:05.005 0 0
00041.M2TS 0:02:20.140 0:00:05.004 0 0
00041.M2TS 0:02:25.145 0:00:05.004 0 0
00041.M2TS 0:02:30.150 0:00:05.004 0 0
00041.M2TS 0:02:35.155 0:00:05.004 0 0
00041.M2TS 0:02:40.160 0:00:05.004 0 0
00041.M2TS 0:02:45.165 0:00:05.004 0 0
00041.M2TS 0:02:50.1
General
ID única : 24871160594203821248477104024848816724 (0x12B602E429F23D99C8E8B5E14D05DA54)
Nombre completo : La Momia BDRemux HD1080.mkv
Formato : Matroska
Formato de la versión : Version 4 / Version 2
Tamaño de archivo : 15,8 GiB
Duración : 1 h 50 min
Tasa de bits general : 20,6 Mb/s
Fecha de codificación : UTC 2017-10-02T16:54:02Z
Aplicación de codifición : HandBrake 1.0.7 2017040900
Librería de codificación : Lavf57.7.2

Vídeo
ID : 1
Formato : AVC
Formato/Info : Advanced Video Codec
Formato del perfil : [email protected]
Ajustes del formato : CABAC / 4 Ref Frames
Ajustes del formato, CABAC : Sí
Ajustes del formato, RefFrames : 4 fotogramas
ID códec : V_MPEG4/ISO/AVC
Duración : 1 h 50 min
Ancho : 1 920 píxeles
Alto : 800 píxeles
Relación de aspecto : 2,40:1
Modo velocidad fotogramas : Constante
Velocidad de fotogramas : 23,976 (24000/1001) FPS
Espacio de color : YUV
Submuestreo croma : 4:2:0
Profundidad bits : 8 bits
Tipo barrido : Progresivo
Librería de codificación : x264 core 148 r2708 86b7198
Opciones de codificación : cabac=1 / ref=1 / deblock=1:0:0 / analyse=0x1:0x111 / me=hex / subme=2 / psy=1 / psy_rd=1.00:0.00 / mixed_ref=0 / me_range=16 / chroma_me=1 / trellis=0 / 8x8dct=0 / cqm=0 / deadzone=21,11 / fast_pskip=1 / chroma_qp_offset=0 / threads=24 / lookahead_threads=6 / sliced_threads=0 / nr=0 / decimate=1 / interlaced=0 / bluray_compat=0 / constrained_intra=0 / bframes=3 / b_pyramid=2 / b_adapt=1 / b_bias=0 / direct=1 / weightb=1 / open_gop=0 / weightp=1 / keyint=240 / keyint_min=24 / scenecut=40 / intra_refresh=0 / rc_lookahead=10 / rc=crf / mbtree=1 / crf=1.0 / qcomp=0.60 / qpmin=0 / qpmax=69 / qpstep=4 / vbv_maxrate=20000 / vbv_bufsize=25000 / crf_max=0.0 / nal_hrd=none / filler=0 / ip_ratio=1.40 / aq=1:1.00
Default : Sí
Forced : No
Rango de color : Limited
Colores primarios : BT.709
Características transferencia : BT.709
Coeficientes matriz : BT.709

Audio #1
ID : 2
Formato : AAC
Formato/Info : Advanced Audio Codec
Formato del perfil : LC
ID códec : A_AAC-2
Duración : 1 h 50 min
Canal(es) : 2 canales
Posiciones del canal : Front: L R
Velocidad de muestreo : 48,0 kHz
Velocidad de fotogramas : 46,875 FPS (1024 SPF)
Modo de compresión : Con pérdida
Título : Stereo
Idioma : Español
Default : Sí
Forced : No

Audio #2
ID : 3
Formato : AAC
Formato/Info : Advanced Audio Codec
Formato del perfil : LC
ID códec : A_AAC-2
Duración : 1 h 50 min
Canal(es) : 2 canales
Posiciones del canal : Front: L R
Velocidad de muestreo : 48,0 kHz
Velocidad de fotogramas : 46,875 FPS (1024 SPF)
Modo de compresión : Con pérdida
Retraso relativo al vídeo : -21 ms
Título : Stereo
Idioma : Inglés
Default : No
Forced : No

Texto #1
ID : 4
Formato : PGS
ID códec : S_HDMV/PGS
ID códec/Info : Picture based subtitle format used on BDs/HD-DVDs
Idioma : Arabe
Default : No
Forced : No

Texto #2
ID : 5
Formato : PGS
ID códec : S_HDMV/PGS
ID códec/Info : Picture based subtitle format used on BDs/HD-DVDs
Idioma : Danés
Default : No
Forced : No

Texto #3
ID : 6
Formato : PGS
ID códec : S_HDMV/PGS
ID códec/Info : Picture based subtitle format used on BDs/HD-DVDs
Idioma : Holandés
Default : No
Forced : No

Texto #4
ID : 7
Formato : PGS
ID códec : S_HDMV/PGS
ID códec/Info : Picture based subtitle format used on BDs/HD-DVDs
Idioma : Inglés
Default : No
Forced : No

Texto #5
ID : 8
Formato : PGS
ID códec : S_HDMV/PGS
ID códec/Info : Picture based subtitle format used on BDs/HD-DVDs
Idioma : Finnish
Default : No
Forced : No

Texto #6
ID : 9
Formato : PGS
ID códec : S_HDMV/PGS
ID códec/Info : Picture based subtitle format used on BDs/HD-DVDs
Idioma : Francés
Default : No
Forced : No

Texto #7
ID : 10
Formato : PGS
ID códec : S_HDMV/PGS
ID códec/Info : Picture based subtitle format used on BDs/HD-DVDs
Idioma : Hindi
Default : No
Forced : No

Texto #8
ID : 11
Formato : PGS
ID códec : S_HDMV/PGS
ID códec/Info : Picture based subtitle format used on BDs/HD-DVDs
Idioma : Islandés
Default : No
Forced : No

Texto #9
ID : 12
Formato : PGS
ID códec : S_HDMV/PGS
ID códec/Info : Picture based subtitle format used on BDs/HD-DVDs
Idioma : Italiano
Default : No
Forced : No

Texto #10
ID : 13
Formato : PGS
ID códec : S_HDMV/PGS
ID códec/Info : Picture based subtitle format used on BDs/HD-DVDs
Idioma : Noruego
Default : No
Forced : No

Texto #11
ID : 14
Formato : PGS
ID códec : S_HDMV/PGS
ID códec/Info : Picture based subtitle format used on BDs/HD-DVDs
Idioma : Español
Default : No
Forced : No

Texto #12
ID : 15
Formato : PGS
ID códec : S_HDMV/PGS
ID códec/Info : Picture based subtitle format used on BDs/HD-DVDs
Idioma : Sueco
Default : No
Forced : No

Menú
00:00:00.000 : :Chapter 1
00:08:18.707 : :Chapter 2
00:13:18.923 : :Chapter 3
00:19:30.961 : :Chapter 4
00:24:40.145 : :Chapter 5
00:28:54.107 : :Chapter 6
00:35:41.389 : :Chapter 7
00:39:36.040 : :Chapter 8
00:47:00.067 : :Chapter 9
00:50:57.638 : :Chapter 10
00:56:49.740 : :Chapter 11
01:00:43.265 : :Chapter 12
01:08:58.009 : :Chapter 13
01:16:03.851 : :Chapter 14
01:19:37.690 : :Chapter 15
01:23:16.408 : :Chapter 16
01:26:26.848 : :Chapter 17
01:33:34.943 : :Chapter 18
01:37:02.859 : :Chapter 19
01:39:47.857 : :Chapter 20
General
ID única : 292313685461629227661636505552275297217 (0xDBE991685917865D1B00F192A702D3C1)
Nombre completo : La Momia BDRip HD1080.mkv
Formato : Matroska
Formato de la versión : Version 4 / Version 2
Tamaño de archivo : 5,83 GiB
Duración : 1 h 50 min
Tasa de bits general : 7 582 kb/s
Fecha de codificación : UTC 2017-10-02T17:40:29Z
Aplicación de codifición : HandBrake 1.0.7 2017040900
Librería de codificación : Lavf57.7.2

Vídeo
ID : 1
Formato : AVC
Formato/Info : Advanced Video Codec
Formato del perfil : [email protected]
Ajustes del formato : CABAC / 4 Ref Frames
Ajustes del formato, CABAC : Sí
Ajustes del formato, RefFrames : 4 fotogramas
ID códec : V_MPEG4/ISO/AVC
Duración : 1 h 50 min
Ancho : 1 920 píxeles
Alto : 800 píxeles
Relación de aspecto : 2,40:1
Modo velocidad fotogramas : Constante
Velocidad de fotogramas : 23,976 (24000/1001) FPS
Espacio de color : YUV
Submuestreo croma : 4:2:0
Profundidad bits : 8 bits
Tipo barrido : Progresivo
Librería de codificación : x264 core 148 r2708 86b7198
Opciones de codificación : cabac=1 / ref=1 / deblock=1:0:0 / analyse=0x1:0x111 / me=hex / subme=2 / psy=1 / psy_rd=1.00:0.00 / mixed_ref=0 / me_range=16 / chroma_me=1 / trellis=0 / 8x8dct=0 / cqm=0 / deadzone=21,11 / fast_pskip=1 / chroma_qp_offset=0 / threads=24 / lookahead_threads=6 / sliced_threads=0 / nr=0 / decimate=1 / interlaced=0 / bluray_compat=0 / constrained_intra=0 / bframes=3 / b_pyramid=2 / b_adapt=1 / b_bias=0 / direct=1 / weightb=1 / open_gop=0 / weightp=1 / keyint=240 / keyint_min=24 / scenecut=40 / intra_refresh=0 / rc_lookahead=10 / rc=crf / mbtree=1 / crf=20.0 / qcomp=0.60 / qpmin=0 / qpmax=69 / qpstep=4 / vbv_maxrate=20000 / vbv_bufsize=25000 / crf_max=0.0 / nal_hrd=none / filler=0 / ip_ratio=1.40 / aq=1:1.00
Default : Sí
Forced : No
Rango de color : Limited
Colores primarios : BT.709
Características transferencia : BT.709
Coeficientes matriz : BT.709

Audio #1
ID : 2
Formato : AAC
Formato/Info : Advanced Audio Codec
Formato del perfil : LC
ID códec : A_AAC-2
Duración : 1 h 50 min
Canal(es) : 2 canales
Posiciones del canal : Front: L R
Velocidad de muestreo : 48,0 kHz
Velocidad de fotogramas : 46,875 FPS (1024 SPF)
Modo de compresión : Con pérdida
Título : Stereo
Idioma : Español
Default : Sí
Forced : No

Audio #2
ID : 3
Formato : AAC
Formato/Info : Advanced Audio Codec
Formato del perfil : LC
ID códec : A_AAC-2
Duración : 1 h 50 min
Canal(es) : 2 canales
Posiciones del canal : Front: L R
Velocidad de muestreo : 48,0 kHz
Velocidad de fotogramas : 46,875 FPS (1024 SPF)
Modo de compresión : Con pérdida
Retraso relativo al vídeo : -21 ms
Título : Stereo
Idioma : Inglés
Default : No
Forced : No

Texto #1
ID : 4
Formato : PGS
ID códec : S_HDMV/PGS
ID códec/Info : Picture based subtitle format used on BDs/HD-DVDs
Idioma : Arabe
Default : No
Forced : No

Texto #2
ID : 5
Formato : PGS
ID códec : S_HDMV/PGS
ID códec/Info : Picture based subtitle format used on BDs/HD-DVDs
Idioma : Danés
Default : No
Forced : No

Texto #3
ID : 6
Formato : PGS
ID códec : S_HDMV/PGS
ID códec/Info : Picture based subtitle format used on BDs/HD-DVDs
Idioma : Holandés
Default : No
Forced : No

Texto #4
ID : 7
Formato : PGS
ID códec : S_HDMV/PGS
ID códec/Info : Picture based subtitle format used on BDs/HD-DVDs
Idioma : Inglés
Default : No
Forced : No

Texto #5
ID : 8
Formato : PGS
ID códec : S_HDMV/PGS
ID códec/Info : Picture based subtitle format used on BDs/HD-DVDs
Idioma : Finnish
Default : No
Forced : No

Texto #6
ID : 9
Formato : PGS
ID códec : S_HDMV/PGS
ID códec/Info : Picture based subtitle format used on BDs/HD-DVDs
Idioma : Francés
Default : No
Forced : No

Texto #7
ID : 10
Formato : PGS
ID códec : S_HDMV/PGS
ID códec/Info : Picture based subtitle format used on BDs/HD-DVDs
Idioma : Hindi
Default : No
Forced : No

Texto #8
ID : 11
Formato : PGS
ID códec : S_HDMV/PGS
ID códec/Info : Picture based subtitle format used on BDs/HD-DVDs
Idioma : Islandés
Default : No
Forced : No

Texto #9
ID : 12
Formato : PGS
ID códec : S_HDMV/PGS
ID códec/Info : Picture based subtitle format used on BDs/HD-DVDs
Idioma : Italiano
Default : No
Forced : No

Texto #10
ID : 13
Formato : PGS
ID códec : S_HDMV/PGS
ID códec/Info : Picture based subtitle format used on BDs/HD-DVDs
Idioma : Noruego
Default : No
Forced : No

Texto #11
ID : 14
Formato : PGS
ID códec : S_HDMV/PGS
ID códec/Info : Picture based subtitle format used on BDs/HD-DVDs
Idioma : Español
Default : No
Forced : No

Texto #12
ID : 15
Formato : PGS
ID códec : S_HDMV/PGS
ID códec/Info : Picture based subtitle format used on BDs/HD-DVDs
Idioma : Sueco
Default : No
Forced : No

Menú
00:00:00.000 : :Chapter 1
00:08:18.707 : :Chapter 2
00:13:18.923 : :Chapter 3
00:19:30.961 : :Chapter 4
00:24:40.145 : :Chapter 5
00:28:54.107 : :Chapter 6
00:35:41.389 : :Chapter 7
00:39:36.040 : :Chapter 8
00:47:00.067 : :Chapter 9
00:50:57.638 : :Chapter 10
00:56:49.740 : :Chapter 11
01:00:43.265 : :Chapter 12
01:08:58.009 : :Chapter 13
01:16:03.851 : :Chapter 14
01:19:37.690 : :Chapter 15
01:23:16.408 : :Chapter 16
01:26:26.848 : :Chapter 17
01:33:34.943 : :Chapter 18
01:37:02.859 : :Chapter 19
01:39:47.857 : :Chapter 20

Reportar Error Visitas: 94