Paste MC

Mega Colecciones

Star Trek Discovery (2017) Temporada 1 WEB-DL 1080p NFO

General
Unique ID : 227144488387935819425343776399688324345 (0xAAE26FEB9C58D5328342B26C4779D4F9)
Complete name : C:\Star Trek Discovery (2017) S01E01 WEBDL 1080p (Ingles-Latino).mkv
Format : Matroska
Format version : Version 4 / Version 2
File size : 1.22 GiB
Duration : 43 min 31 s
Overall bit rate : 4 025 kb/s
Movie name : Star Trek Discovery (2017) S01E01 WEBDL 1080p (Ingles-Latino) - www.MegaColecciones.com
Encoded date : UTC 2017-09-27 23:40:55 / UTC 2017-09-25T15:18:16Z
Writing application : mkvmerge v15.0.0 ('Duel with the Devil') 32-bit
Writing library : libebml v1.3.5 + libmatroska v1.4.5 / Lavf57.7.2

Video
ID : 1
Format : AVC
Format/Info : Advanced Video Codec
Format profile : [email protected]
Format settings, CABAC : Yes
Format settings, RefFrames : 4 frames
Codec ID : V_MPEG4/ISO/AVC
Duration : 43 min 31 s
Bit rate : 3 500 kb/s
Width : 1 920 pixels
Height : 960 pixels
Display aspect ratio : 2.000
Frame rate mode : Constant
Frame rate : 23.976 (24000/1001) FPS
Color space : YUV
Chroma subsampling : 4:2:0
Bit depth : 8 bits
Scan type : Progressive
Bits/(Pixel*Frame) : 0.079
Stream size : 1.02 GiB (84%)
Title : www.MegaColecciones.com
Writing library : x264 core 148 r2708 86b7198
Encoding settings : cabac=1 / ref=3 / deblock=1:0:0 / analyse=0x3:0x113 / me=hex / subme=7 / psy=1 / psy_rd=1.00:0.00 / mixed_ref=1 / me_range=16 / chroma_me=1 / trellis=1 / 8x8dct=1 / cqm=0 / deadzone=21,11 / fast_pskip=1 / chroma_qp_offset=-2 / threads=30 / lookahead_threads=5 / sliced_threads=0 / nr=0 / decimate=1 / interlaced=0 / bluray_compat=0 / constrained_intra=0 / bframes=3 / b_pyramid=2 / b_adapt=1 / b_bias=0 / direct=1 / weightb=1 / open_gop=0 / weightp=2 / keyint=240 / keyint_min=24 / scenecut=40 / intra_refresh=0 / rc_lookahead=40 / rc=2pass / mbtree=1 / bitrate=3500 / ratetol=1.0 / qcomp=0.60 / qpmin=0 / qpmax=69 / qpstep=4 / cplxblur=20.0 / qblur=0.5 / vbv_maxrate=62500 / vbv_bufsize=78125 / nal_hrd=none / filler=0 / ip_ratio=1.40 / aq=1:1.00
Default : Yes
Forced : No
Color range : Limited
Color primaries : BT.709
Transfer characteristics : BT.709
Matrix coefficients : BT.709
Statistics Tags Issue : mkvmerge v15.0.0 ('Duel with the Devil') 32-bit 2017-09-27 23:40:55 / mkvmerge v15.0.0 ('Duel with the Devil') 32-bit 2017-09-27 23:40:55 / UTC 2017-09-25T15:18:16Z
FromStats_BitRate : 3499209
FromStats_Duration : 00:42:52.070000000
FromStats_FrameCount : 61668
FromStats_StreamSize : 1125026313

Audio #1
ID : 2
Format : E-AC-3
Format/Info : Enhanced Audio Coding 3
Format settings, Endianness : Big
Codec ID : A_EAC3
Duration : 43 min 31 s
Bit rate mode : Constant
Bit rate : 192 kb/s
Channel(s) : 6 channels
Channel positions : Front: L C R, Side: L R, LFE
Sampling rate : 48.0 kHz
Frame rate : 187.500 FPS (256 SPF)
Compression mode : Lossy
Stream size : 59.8 MiB (5%)
Title : LATINO
Language : Latin
Service kind : Complete Main
Default : Yes
Forced : Yes
Statistics Tags Issue : mkvmerge v15.0.0 ('Duel with the Devil') 32-bit 2017-09-27 23:40:55 / mkvmerge v15.0.0 ('Duel with the Devil') 32-bit 2017-09-27 23:40:55 / UTC 2017-09-25T15:18:16Z
FromStats_BitRate : 192000
FromStats_Duration : 00:43:31.232000000
FromStats_FrameCount : 81601
FromStats_StreamSize : 62669568

Audio #2
ID : 3
Format : AC-3
Format/Info : Audio Coding 3
Format settings, Endianness : Big
Codec ID : A_AC3
Duration : 43 min 31 s
Bit rate mode : Constant
Bit rate : 384 kb/s
Channel(s) : 6 channels
Channel positions : Front: L C R, Side: L R, LFE
Sampling rate : 48.0 kHz
Frame rate : 31.250 FPS (1536 SPF)
Bit depth : 16 bits
Compression mode : Lossy
Stream size : 120 MiB (10%)
Title : INGLES
Language : English
Service kind : Complete Main
Default : No
Forced : No
Statistics Tags Issue : mkvmerge v15.0.0 ('Duel with the Devil') 32-bit 2017-09-27 23:40:55 / mkvmerge v15.0.0 ('Duel with the Devil') 32-bit 2017-09-27 23:40:55 / UTC 2017-09-25T15:18:16Z
FromStats_BitRate : 384000
FromStats_Duration : 00:43:31.232000000
FromStats_FrameCount : 81601
FromStats_StreamSize : 125339136

Text #1
ID : 4
Format : UTF-8
Codec ID : S_TEXT/UTF8
Codec ID/Info : UTF-8 Plain Text
Language : Spanish
Default : No
Forced : No
Statistics Tags Issue : mkvmerge v15.0.0 ('Duel with the Devil') 32-bit 2017-09-27 23:40:55 / mkvmerge v15.0.0 ('Duel with the Devil') 32-bit 2017-09-27 23:40:55 / UTC 2017-09-25T15:18:16Z
FromStats_BitRate : 75
FromStats_Duration : 00:41:45.297000000
FromStats_FrameCount : 625
FromStats_StreamSize : 23519

Text #2
ID : 5
Format : ASS
Codec ID : S_TEXT/ASS
Codec ID/Info : Advanced Sub Station Alpha
Compression mode : Lossless
Language : English
Default : No
Forced : No
Statistics Tags Issue : mkvmerge v15.0.0 ('Duel with the Devil') 32-bit 2017-09-27 23:40:55 / mkvmerge v15.0.0 ('Duel with the Devil') 32-bit 2017-09-27 23:40:55 / UTC 2017-09-25T15:18:16Z
FromStats_BitRate : 15
FromStats_Duration : 00:29:34.894000000
FromStats_FrameCount : 65
FromStats_StreamSize : 3387


Reportar Error Visitas: 111