Paste MC

Mega Colecciones

Dead Again in Tombstone (2017) BRRIP 1080p 60 FPS NFO

General
Unique ID : 159924542367751384702765581905996618892 (0x785058B42603379FD858AB8A4C9D1C8C)
Complete name : K:\RJGA0103-09-009-1080P60FPS\Dead Again in Tombstone (2017) 1080p 60 FPS.mkv
Format : Matroska
Format version : Version 4 / Version 2
File size : 5.22 GiB
Duration : 1h 39mn
Overall bit rate : 7 537 Kbps
Movie name : Dead Again in Tombstone (2017) - www.MegaColecciones.com
Encoded date : UTC 2017-09-14T16:18:27Z
Writing application : HandBrake 1.0.3 2017022500
Writing library : Lavf57.7.2 / Lavf57.7.2

Video
ID : 1
Format : AVC
Format/Info : Advanced Video Codec
Format profile : [email protected]
Format settings, CABAC : No
Format settings, ReFrames : 1 frame
Codec ID : V_MPEG4/ISO/AVC
Duration : 1h 39mn
Bit rate : 7 000 Kbps
Width : 1 920 pixels
Height : 1 080 pixels
Display aspect ratio : 16:9
Frame rate mode : Constant
Frame rate : 60.000 fps
Color space : YUV
Chroma subsampling : 4:2:0
Bit depth : 8 bits
Scan type : Progressive
Bits/(Pixel*Frame) : 0.056
Stream size : 4.67 GiB (90%)
Writing library : x264 core 148 r2708 86b7198
Encoding settings : cabac=0 / ref=1 / deblock=0:-1:-1 / analyse=0:0 / me=dia / subme=0 / psy=1 / psy_rd=1.00:0.15 / mixed_ref=0 / me_range=16 / chroma_me=1 / trellis=0 / 8x8dct=0 / cqm=0 / deadzone=21,11 / fast_pskip=1 / chroma_qp_offset=0 / threads=24 / lookahead_threads=4 / sliced_threads=0 / nr=0 / decimate=1 / interlaced=0 / bluray_compat=0 / constrained_intra=0 / bframes=0 / weightp=0 / keyint=240 / keyint_min=24 / scenecut=0 / intra_refresh=0 / rc_lookahead=0 / rc=abr / mbtree=0 / bitrate=7000 / ratetol=1.0 / qcomp=0.60 / qpmin=0 / qpmax=69 / qpstep=4 / vbv_maxrate=20000 / vbv_bufsize=25000 / nal_hrd=none / filler=0 / ip_ratio=1.40 / aq=0
Default : Yes
Forced : No
Color range : Limited
Color primaries : BT.709
Transfer characteristics : BT.709
Matrix coefficients : BT.709

Audio #1
ID : 2
Format : AC-3
Format/Info : Audio Coding 3
Mode extension : CM (complete main)
Format settings, Endianness : Big
Codec ID : A_AC3
Duration : 1h 39mn
Bit rate mode : Constant
Bit rate : 320 Kbps
Channel(s) : 6 channels
Channel positions : Front: L C R, Side: L R, LFE
Sampling rate : 48.0 KHz
Frame rate : 31.250 fps (1536 spf)
Compression mode : Lossy
Delay relative to video : -5ms
Stream size : 227 MiB (4%)
Title : Latino - www.MegaColecciones.com
Language : Latin
Default : Yes
Forced : No

Audio #2
ID : 3
Format : AC-3
Format/Info : Audio Coding 3
Mode extension : CM (complete main)
Format settings, Endianness : Big
Codec ID : A_AC3
Duration : 1h 39mn
Bit rate mode : Constant
Bit rate : 320 Kbps
Channel(s) : 6 channels
Channel positions : Front: L C R, Side: L R, LFE
Sampling rate : 48.0 KHz
Frame rate : 31.250 fps (1536 spf)
Compression mode : Lossy
Delay relative to video : -5ms
Stream size : 227 MiB (4%)
Title : Ingles - www.MegaColecciones.com
Language : English
Default : No
Forced : No

Text #1
ID : 4
Format : PGS
Codec ID : S_HDMV/PGS
Codec ID/Info : Picture based subtitle format used on BDs/HD-DVDs
Language : Spanish
Default : No
Forced : No

Text #2
ID : 5
Format : PGS
Codec ID : S_HDMV/PGS
Codec ID/Info : Picture based subtitle format used on BDs/HD-DVDs
Language : English
Default : No
Forced : No

Menu
00:00:00.000 : :Chapter 1
00:06:41.183 : :Chapter 2
00:12:29.400 : :Chapter 3
00:16:55.417 : :Chapter 4
00:23:28.483 : :Chapter 5
00:28:59.683 : :Chapter 6
00:33:37.217 : :Chapter 7
00:36:55.117 : :Chapter 8
00:42:44.800 : :Chapter 9
00:47:29.883 : :Chapter 10
00:52:53.833 : :Chapter 11
00:56:12.233 : :Chapter 12
01:01:01.600 : :Chapter 13
01:04:17.767 : :Chapter 14
01:09:17.567 : :Chapter 15
01:12:36.433 : :Chapter 16
01:18:47.217 : :Chapter 17
01:23:31.783 : :Chapter 18
01:30:14.067 : :Chapter 19
01:36:06.383 : :Chapter 20


Reportar Error Visitas: 26