Paste MC

Mega Colecciones

Baywatch: Guardianes de la bahía (2017) THEATRICAL CUTS BRRIP 1080p 60 FPS NFO

General
Unique ID : 93154571590368399905649171410213114718 (0x4614EAFAB95BCD6EA72462BCE3FB935E)
Complete name : E:\HDNL2GSR053\Descargas\RJGA0103-09-005-1080P60FPS\Baywatch (2017) THEATRICAL CUTS 1080p 60 FPS.mkv
Format : Matroska
Format version : Version 4 / Version 2
File size : 6.35 GiB
Duration : 1h 56mn
Overall bit rate : 7 801 Kbps
Movie name : Baywatch (2017) THEATRICAL CUTS - www.MegaColecciones.com
Encoded date : UTC 2017-09-04T11:22:52Z
Writing application : HandBrake 1.0.3 2017022500
Writing library : Lavf57.7.2 / Lavf57.7.2

Video
ID : 1
Format : AVC
Format/Info : Advanced Video Codec
Format profile : [email protected]
Format settings, CABAC : No
Format settings, ReFrames : 1 frame
Codec ID : V_MPEG4/ISO/AVC
Duration : 1h 56mn
Bit rate : 7 000 Kbps
Width : 1 920 pixels
Height : 804 pixels
Display aspect ratio : 2.40:1
Frame rate mode : Constant
Frame rate : 60.000 fps
Color space : YUV
Chroma subsampling : 4:2:0
Bit depth : 8 bits
Scan type : Progressive
Bits/(Pixel*Frame) : 0.076
Stream size : 5.70 GiB (90%)
Writing library : x264 core 148 r2708 86b7198
Encoding settings : cabac=0 / ref=1 / deblock=0:-1:-1 / analyse=0:0 / me=dia / subme=0 / psy=1 / psy_rd=1.00:0.15 / mixed_ref=0 / me_range=16 / chroma_me=1 / trellis=0 / 8x8dct=0 / cqm=0 / deadzone=21,11 / fast_pskip=1 / chroma_qp_offset=0 / threads=24 / lookahead_threads=4 / sliced_threads=0 / nr=0 / decimate=1 / interlaced=0 / bluray_compat=0 / constrained_intra=0 / bframes=0 / weightp=0 / keyint=240 / keyint_min=24 / scenecut=0 / intra_refresh=0 / rc_lookahead=0 / rc=abr / mbtree=0 / bitrate=7000 / ratetol=1.0 / qcomp=0.60 / qpmin=0 / qpmax=69 / qpstep=4 / vbv_maxrate=20000 / vbv_bufsize=25000 / nal_hrd=none / filler=0 / ip_ratio=1.40 / aq=0
Default : Yes
Forced : No
Color range : Limited
Color primaries : BT.709
Transfer characteristics : BT.709
Matrix coefficients : BT.709

Audio #1
ID : 2
Format : AC-3
Format/Info : Audio Coding 3
Mode extension : CM (complete main)
Format settings, Endianness : Big
Codec ID : A_AC3
Duration : 1h 56mn
Bit rate mode : Constant
Bit rate : 320 Kbps
Channel(s) : 6 channels
Channel positions : Front: L C R, Side: L R, LFE
Sampling rate : 48.0 KHz
Frame rate : 31.250 fps (1536 spf)
Compression mode : Lossy
Delay relative to video : -5ms
Stream size : 267 MiB (4%)
Title : Latino - www.MegaColecciones.com
Language : Latin
Default : Yes
Forced : No

Audio #2
ID : 3
Format : AC-3
Format/Info : Audio Coding 3
Mode extension : CM (complete main)
Format settings, Endianness : Big
Codec ID : A_AC3
Duration : 1h 56mn
Bit rate mode : Constant
Bit rate : 320 Kbps
Channel(s) : 6 channels
Channel positions : Front: L C R, Side: L R, LFE
Sampling rate : 48.0 KHz
Frame rate : 31.250 fps (1536 spf)
Compression mode : Lossy
Delay relative to video : -5ms
Stream size : 267 MiB (4%)
Title : Ingles - www.MegaColecciones.com
Language : English
Default : No
Forced : No

Text #1
ID : 4
Format : PGS
Codec ID : S_HDMV/PGS
Codec ID/Info : Picture based subtitle format used on BDs/HD-DVDs
Language : Spanish
Default : No
Forced : No

Text #2
ID : 5
Format : PGS
Codec ID : S_HDMV/PGS
Codec ID/Info : Picture based subtitle format used on BDs/HD-DVDs
Language : English
Default : No
Forced : No

Text #3
ID : 6
Format : PGS
Codec ID : S_HDMV/PGS
Codec ID/Info : Picture based subtitle format used on BDs/HD-DVDs
Language : English
Default : No
Forced : No

Text #4
ID : 7
Format : PGS
Codec ID : S_HDMV/PGS
Codec ID/Info : Picture based subtitle format used on BDs/HD-DVDs
Language : English
Default : No
Forced : No

Menu
00:00:00.000 : :Chapter 1
00:07:40.367 : :Chapter 2
00:14:46.917 : :Chapter 3
00:18:54.367 : :Chapter 4
00:27:33.600 : :Chapter 5
00:36:03.400 : :Chapter 6
00:42:54.933 : :Chapter 7
00:48:33.233 : :Chapter 8
00:59:29.800 : :Chapter 9
01:09:25.067 : :Chapter 10
01:15:58.217 : :Chapter 11
01:24:46.983 : :Chapter 12
01:31:09.367 : :Chapter 13
01:39:37.167 : :Chapter 14
01:45:12.550 : :Chapter 15
01:49:58.033 : :Chapter 16


Reportar Error Visitas: 37